  0
SECTION
  2
HEADER
  9
$ACADVER
  1
AC1015
  9
$ACADMAINTVER
 70
     6
  9
$DWGCODEPAGE
  3
ANSI_932
  9
$INSBASE
 10
-539.8392676451231
 20
-1345.581933835674
 30
0.0
  9
$EXTMIN
 10
-641.6626783413894
 20
-1879.991621020336
 30
0.0
  9
$EXTMAX
 10
-87.66267834138944
 20
-1079.991621020336
 30
0.0
  9
$LIMMIN
 10
-641.6626783413894
 20
-1879.991621020336
  9
$LIMMAX
 10
-87.66267834138944
 20
-1079.991621020336
  9
$ORTHOMODE
 70
     0
  9
$REGENMODE
 70
     0
  9
$FILLMODE
 70
     1
  9
$QTEXTMODE
 70
     0
  9
$MIRRTEXT
 70
     1
  9
$LTSCALE
 40
2.0
  9
$ATTMODE
 70
     1
  9
$TEXTSIZE
 40
8.0
  9
$TRACEWID
 40
0.05
  9
$TEXTSTYLE
  7
Standard
  9
$CLAYER
  8
1
  9
$CELTYPE
  6
Continuous
  9
$CECOLOR
 62
     7
  9
$CELTSCALE
 40
1.0
  9
$DISPSILH
 70
     0
  9
$DIMSCALE
 40
2.0
  9
$DIMASZ
 40
2.0
  9
$DIMEXO
 40
1.0
  9
$DIMDLI
 40
7.0
  9
$DIMRND
 40
0.0
  9
$DIMDLE
 40
1.0
  9
$DIMEXE
 40
1.0
  9
$DIMTP
 40
0.0
  9
$DIMTM
 40
0.0
  9
$DIMTXT
 40
4.0
  9
$DIMCEN
 40
0.09
  9
$DIMTSZ
 40
0.0
  9
$DIMTOL
 70
     0
  9
$DIMLIM
 70
     0
  9
$DIMTIH
 70
     0
  9
$DIMTOH
 70
     0
  9
$DIMSE1
 70
     0
  9
$DIMSE2
 70
     0
  9
$DIMTAD
 70
     1
  9
$DIMZIN
 70
     8
  9
$DIMBLK
  1
OPEN30
  9
$DIMASO
 70
     1
  9
$DIMSHO
 70
     0
  9
$DIMPOST
  1

  9
$DIMAPOST
  1

  9
$DIMALT
 70
     0
  9
$DIMALTD
 70
     3
  9
$DIMALTF
 40
25.4
  9
$DIMLFAC
 40
1.0
  9
$DIMTOFL
 70
     0
  9
$DIMTVP
 40
0.0
  9
$DIMTIX
 70
     0
  9
$DIMSOXD
 70
     0
  9
$DIMSAH
 70
     0
  9
$DIMBLK1
  1
OPEN30
  9
$DIMBLK2
  1
OPEN30
  9
$DIMSTYLE
  2
Standard
  9
$DIMCLRD
 70
     3
  9
$DIMCLRE
 70
     3
  9
$DIMCLRT
 70
     2
  9
$DIMTFAC
 40
0.5
  9
$DIMGAP
 40
0.0
  9
$DIMJUST
 70
     0
  9
$DIMSD1
 70
     0
  9
$DIMSD2
 70
     0
  9
$DIMTOLJ
 70
     1
  9
$DIMTZIN
 70
     0
  9
$DIMALTZ
 70
     0
  9
$DIMALTTZ
 70
     0
  9
$DIMUPT
 70
     0
  9
$DIMDEC
 70
     3
  9
$DIMTDEC
 70
     3
  9
$DIMALTU
 70
     2
  9
$DIMALTTD
 70
     2
  9
$DIMTXSTY
  7
DIMSTANDARD
  9
$DIMAUNIT
 70
     0
  9
$DIMADEC
 70
     3
  9
$DIMALTRND
 40
0.0
  9
$DIMAZIN
 70
     2
  9
$DIMDSEP
 70
    46
  9
$DIMATFIT
 70
     3
  9
$DIMFRAC
 70
     0
  9
$DIMLDRBLK
  1

  9
$DIMLUNIT
 70
     2
  9
$DIMLWD
 70
    -1
  9
$DIMLWE
 70
    -1
  9
$DIMTMOVE
 70
     0
  9
$LUNITS
 70
     2
  9
$LUPREC
 70
     4
  9
$SKETCHINC
 40
0.1
  9
$FILLETRAD
 40
0.0
  9
$AUNITS
 70
     0
  9
$AUPREC
 70
     0
  9
$MENU
  1
ACAD
  9
$ELEVATION
 40
0.0
  9
$PELEVATION
 40
0.0
  9
$THICKNESS
 40
0.0
  9
$LIMCHECK
 70
     0
  9
$CHAMFERA
 40
0.0
  9
$CHAMFERB
 40
0.0
  9
$CHAMFERC
 40
0.0
  9
$CHAMFERD
 40
0.0
  9
$SKPOLY
 70
     0
  9
$TDCREATE
 40
2419091.375
  9
$TDUCREATE
 40
2419091.0
  9
$TDUPDATE
 40
2457700.422023542
  9
$TDUUPDATE
 40
2457700.047023542
  9
$TDINDWG
 40
0.0
  9
$TDUSRTIMER
 40
0.0
  9
$USRTIMER
 70
     1
  9
$ANGBASE
 50
0.0
  9
$ANGDIR
 70
     0
  9
$PDMODE
 70
    65
  9
$PDSIZE
 40
0.2
  9
$PLINEWID
 40
0.0
  9
$SPLFRAME
 70
     0
  9
$SPLINETYPE
 70
     6
  9
$SPLINESEGS
 70
     8
  9
$HANDSEED
  5
44F
  9
$SURFTAB1
 70
     6
  9
$SURFTAB2
 70
     6
  9
$SURFTYPE
 70
     6
  9
$SURFU
 70
     6
  9
$SURFV
 70
     6
  9
$UCSBASE
  2

  9
$UCSNAME
  2

  9
$UCSORG
 10
0.0
 20
0.0
 30
0.0
  9
$UCSXDIR
 10
1.0
 20
0.0
 30
0.0
  9
$UCSYDIR
 10
0.0
 20
1.0
 30
0.0
  9
$UCSORTHOREF
  2

  9
$UCSORTHOVIEW
 70
     0
  9
$UCSORGTOP
 10
0.0
 20
0.0
 30
0.0
  9
$UCSORGBOTTOM
 10
0.0
 20
0.0
 30
0.0
  9
$UCSORGLEFT
 10
0.0
 20
0.0
 30
0.0
  9
$UCSORGRIGHT
 10
0.0
 20
0.0
 30
0.0
  9
$UCSORGFRONT
 10
0.0
 20
0.0
 30
0.0
  9
$UCSORGBACK
 10
0.0
 20
0.0
 30
0.0
  9
$PUCSBASE
  2

  9
$PUCSNAME
  2

  9
$PUCSORG
 10
0.0
 20
0.0
 30
0.0
  9
$PUCSXDIR
 10
1.0
 20
0.0
 30
0.0
  9
$PUCSYDIR
 10
0.0
 20
1.0
 30
0.0
  9
$PUCSORTHOREF
  2

  9
$PUCSORTHOVIEW
 70
     0
  9
$PUCSORGTOP
 10
0.0
 20
0.0
 30
0.0
  9
$PUCSORGBOTTOM
 10
0.0
 20
0.0
 30
0.0
  9
$PUCSORGLEFT
 10
0.0
 20
0.0
 30
0.0
  9
$PUCSORGRIGHT
 10
0.0
 20
0.0
 30
0.0
  9
$PUCSORGFRONT
 10
0.0
 20
0.0
 30
0.0
  9
$PUCSORGBACK
 10
0.0
 20
0.0
 30
0.0
  9
$USERI1
 70
     0
  9
$USERI2
 70
     0
  9
$USERI3
 70
     0
  9
$USERI4
 70
     0
  9
$USERI5
 70
     0
  9
$USERR1
 40
0.0
  9
$USERR2
 40
0.0
  9
$USERR3
 40
0.0
  9
$USERR4
 40
0.0
  9
$USERR5
 40
0.0
  9
$WORLDVIEW
 70
     1
  9
$SHADEDGE
 70
     3
  9
$SHADEDIF
 70
    70
  9
$TILEMODE
 70
     1
  9
$MAXACTVP
 70
    64
  9
$PINSBASE
 10
0.0
 20
0.0
 30
0.0
  9
$PLIMCHECK
 70
     0
  9
$PEXTMIN
 10
1.000000000000000E+20
 20
1.000000000000000E+20
 30
1.000000000000000E+20
  9
$PEXTMAX
 10
-1.000000000000000E+20
 20
-1.000000000000000E+20
 30
-1.000000000000000E+20
  9
$PLIMMIN
 10
0.0
 20
0.0
  9
$PLIMMAX
 10
12.0
 20
9.0
  9
$UNITMODE
 70
     0
  9
$VISRETAIN
 70
     1
  9
$PLINEGEN
 70
     0
  9
$PSLTSCALE
 70
     1
  9
$TREEDEPTH
 70
  3020
  9
$CMLSTYLE
  2
Standard
  9
$CMLJUST
 70
     0
  9
$CMLSCALE
 40
1.0
  9
$PROXYGRAPHICS
 70
     1
  9
$MEASUREMENT
 70
     0
  9
$CELWEIGHT
370
    -1
  9
$ENDCAPS
280
     0
  9
$JOINSTYLE
280
     0
  9
$LWDISPLAY
290
     0
  9
$INSUNITS
 70
     1
  9
$HYPERLINKBASE
  1

  9
$STYLESHEET
  1

  9
$XEDIT
290
     1
  9
$CEPSNTYPE
380
     0
  9
$PSTYLEMODE
290
     1
  9
$FINGERPRINTGUID
  2
{F485F22A-2B6C-4456-B4BE-9B24E4F40755}
  9
$VERSIONGUID
  2
{FAEB1C32-E019-11D5-929B-00C0DF256EC4}
  9
$EXTNAMES
290
     1
  9
$PSVPSCALE
 40
0.0
  9
$OLESTARTUP
290
     0
  0
ENDSEC
  0
SECTION
  2
CLASSES
  0
CLASS
  1
ACDBDICTIONARYWDFLT
  2
AcDbDictionaryWithDefault
  3
ObjectDBX Classes
 90
        0
280
     0
281
     0
  0
CLASS
  1
VISUALSTYLE
  2
AcDbVisualStyle
  3
ObjectDBX Classes
 90
     4095
280
     0
281
     0
  0
CLASS
  1
MATERIAL
  2
AcDbMaterial
  3
ObjectDBX Classes
 90
     1153
280
     0
281
     0
  0
CLASS
  1
SCALE
  2
AcDbScale
  3
ObjectDBX Classes
 90
     1153
280
     0
281
     0
  0
CLASS
  1
TABLESTYLE
  2
AcDbTableStyle
  3
ObjectDBX Classes
 90
     4095
280
     0
281
     0
  0
CLASS
  1
MLEADERSTYLE
  2
AcDbMLeaderStyle
  3
ACDB_MLEADERSTYLE_CLASS
 90
     4095
280
     0
281
     0
  0
CLASS
  1
SUN
  2
AcDbSun
  3
SCENEOE
 90
     1153
280
     0
281
     0
  0
CLASS
  1
DICTIONARYVAR
  2
AcDbDictionaryVar
  3
ObjectDBX Classes
 90
        0
280
     0
281
     0
  0
CLASS
  1
ACDBPLACEHOLDER
  2
AcDbPlaceHolder
  3
ObjectDBX Classes
 90
        0
280
     0
281
     0
  0
CLASS
  1
LAYOUT
  2
AcDbLayout
  3
ObjectDBX Classes
 90
        0
280
     0
281
     0
  0
ENDSEC
  0
SECTION
  2
TABLES
  0
TABLE
  2
VPORT
  5
8
102
{ACAD_XDICTIONARY
360
412
102
}
330
0
100
AcDbSymbolTable
 70
     1
  0
VPORT
  5
29
330
8
100
AcDbSymbolTableRecord
100
AcDbViewportTableRecord
  2
*Active
 70
     0
 10
0.0
 20
0.0
 11
1.0
 21
1.0
 12
277.0
 22
400.0
 13
0.0
 23
0.0
 14
0.5
 24
0.5
 15
0.5
 25
0.5
 16
0.0
 26
0.0
 36
1.0
 17
0.0
 27
0.0
 37
0.0
 40
800.0
 41
0.6925
 42
50.0
 43
0.0
 44
0.0
 50
0.0
 51
0.0
 71
     0
 72
   100
 73
     1
 74
     3
 75
     0
 76
     0
 77
     0
 78
     0
281
     0
 65
     1
110
0.0
120
0.0
130
0.0
111
1.0
121
0.0
131
0.0
112
0.0
122
1.0
132
0.0
 79
     0
146
0.0
  0
ENDTAB
  0
TABLE
  2
LTYPE
  5
5
330
0
100
AcDbSymbolTable
 70
    17
  0
LTYPE
  5
14
330
5
100
AcDbSymbolTableRecord
100
AcDbLinetypeTableRecord
  2
ByBlock
 70
     0
  3

 72
    65
 73
     0
 40
0.0
  0
LTYPE
  5
15
330
5
100
AcDbSymbolTableRecord
100
AcDbLinetypeTableRecord
  2
ByLayer
 70
     0
  3

 72
    65
 73
     0
 40
0.0
  0
LTYPE
  5
16
330
5
100
AcDbSymbolTableRecord
100
AcDbLinetypeTableRecord
  2
Continuous
 70
     0
  3
Solid line
 72
    65
 73
     0
 40
0.0
  0
LTYPE
  5
6E
330
5
100
AcDbSymbolTableRecord
100
AcDbLinetypeTableRecord
  2
DIVIDE
 70
     0
  3
Divide ____ . . ____ . . ____ . . ____ . . ____
 72
    65
 73
     6
 40
1.25
 49
0.5
 74
     0
 49
-0.25
 74
     0
 49
0.0
 74
     0
 49
-0.25
 74
     0
 49
0.0
 74
     0
 49
-0.25
 74
     0
  0
LTYPE
  5
6F
330
5
100
AcDbSymbolTableRecord
100
AcDbLinetypeTableRecord
  2
HIDDEN
 70
     0
  3
Hidden __ __ __ __ __ __ __ __ __ __ __ __ __ _
 72
    65
 73
     2
 40
9.525
 49
6.35
 74
     0
 49
-3.175
 74
     0
  0
LTYPE
  5
70
330
5
100
AcDbSymbolTableRecord
100
AcDbLinetypeTableRecord
  2
HIDDEN2
 70
     0
  3
Hidden (.5x) _ _ _ _ _ _ _ _ _ _ _ _ _ _ _ _ _
 72
    65
 73
     2
 40
4.7625
 49
3.175
 74
     0
 49
-1.5875
 74
     0
  0
LTYPE
  5
71
330
5
100
AcDbSymbolTableRecord
100
AcDbLinetypeTableRecord
  2
CENTER2
 70
     0
  3
Center (.5x) ___ _ ___ _ ___ _ ___ _ ___ _ ___
 72
    65
 73
     4
 40
28.575
 49
19.05
 74
     0
 49
-3.175
 74
     0
 49
3.175
 74
     0
 49
-3.175
 74
     0
  0
LTYPE
  5
72
330
5
100
AcDbSymbolTableRecord
100
AcDbLinetypeTableRecord
  2
PHANTOM2
 70
     0
  3
Phantom (.5x) ___ _ _ ___ _ _ ___ _ _ ___ _ _
 72
    65
 73
     6
 40
31.75
 49
15.875
 74
     0
 49
-3.175
 74
     0
 49
3.175
 74
     0
 49
-3.175
 74
     0
 49
3.175
 74
     0
 49
-3.175
 74
     0
  0
LTYPE
  5
73
330
5
100
AcDbSymbolTableRecord
100
AcDbLinetypeTableRecord
  2
DASHED
 70
     0
  3
Dashed __ __ __ __ __ __ __ __ __ __ __ __ __ _
 72
    65
 73
     2
 40
19.05
 49
12.7
 74
     0
 49
-6.35
 74
     0
  0
LTYPE
  5
74
330
5
100
AcDbSymbolTableRecord
100
AcDbLinetypeTableRecord
  2
CENTER
 70
     0
  3
Center ____ _ ____ _ ____ _ ____ _ ____ _ ____
 72
    65
 73
     4
 40
50.8
 49
31.75
 74
     0
 49
-6.35
 74
     0
 49
6.35
 74
     0
 49
-6.35
 74
     0
  0
LTYPE
  5
75
330
5
100
AcDbSymbolTableRecord
100
AcDbLinetypeTableRecord
  2
PHANTOM
 70
     0
  3
Phantom ______  __  __  ______  __  __  ______
 72
    65
 73
     6
 40
63.5
 49
31.75
 74
     0
 49
-6.35
 74
     0
 49
6.35
 74
     0
 49
-6.35
 74
     0
 49
6.35
 74
     0
 49
-6.35
 74
     0
  0
LTYPE
  5
76
330
5
100
AcDbSymbolTableRecord
100
AcDbLinetypeTableRecord
  2
BORDER2
 70
     0
  3
Border (.5x) __.__.__.__.__.__.__.__.__.__.__.
 72
    65
 73
     6
 40
22.225
 49
6.35
 74
     0
 49
-3.175
 74
     0
 49
6.35
 74
     0
 49
-3.175
 74
     0
 49
0.0
 74
     0
 49
-3.175
 74
     0
  0
LTYPE
  5
77
330
5
100
AcDbSymbolTableRecord
100
AcDbLinetypeTableRecord
  2
HIDDENX2
 70
     0
  3
Hidden (2x) ____ ____ ____ ____ ____ ____ ____
 72
    65
 73
     2
 40
19.05
 49
12.7
 74
     0
 49
-6.35
 74
     0
  0
LTYPE
  5
78
330
5
100
AcDbSymbolTableRecord
100
AcDbLinetypeTableRecord
  2
DOTX2
 70
     0
  3
Dot (2x) .  .  .  .  .  .  .  .  .  .  .  .  . 
 72
    65
 73
     2
 40
12.7
 49
0.0
 74
     0
 49
-12.7
 74
     0
  0
LTYPE
  5
79
330
5
100
AcDbSymbolTableRecord
100
AcDbLinetypeTableRecord
  2
DASHDOTX2
 70
     0
  3
Dash dot (2x) ____  .  ____  .  ____  .  ___
 72
    65
 73
     4
 40
50.8
 49
25.4
 74
     0
 49
-12.7
 74
     0
 49
0.0
 74
     0
 49
-12.7
 74
     0
  0
LTYPE
  5
7A
330
5
100
AcDbSymbolTableRecord
100
AcDbLinetypeTableRecord
  2
DIVIDEX2
 70
     0
  3
Divide (2x) ________  .  .  ________  .  .  _
 72
    65
 73
     6
 40
63.5
 49
25.4
 74
     0
 49
-12.7
 74
     0
 49
0.0
 74
     0
 49
-12.7
 74
     0
 49
0.0
 74
     0
 49
-12.7
 74
     0
  0
LTYPE
  5
7B
330
5
100
AcDbSymbolTableRecord
100
AcDbLinetypeTableRecord
  2
DASHEDX2
 70
     0
  3
Dashed (2x) ____  ____  ____  ____  ____  ___
 72
    65
 73
     2
 40
38.1
 49
25.4
 74
     0
 49
-12.7
 74
     0
  0
LTYPE
  5
7C
330
5
100
AcDbSymbolTableRecord
100
AcDbLinetypeTableRecord
  2
CENTERX2
 70
     0
  3
Center (2x) ________  __  ________  __  _____
 72
    65
 73
     4
 40
101.6
 49
63.5
 74
     0
 49
-12.7
 74
     0
 49
12.7
 74
     0
 49
-12.7
 74
     0
  0
LTYPE
  5
7D
330
5
100
AcDbSymbolTableRecord
100
AcDbLinetypeTableRecord
  2
PHANTOMX2
 70
     0
  3
Phantom (2x) ____________    ____    ____   _
 72
    65
 73
     6
 40
127.0
 49
63.5
 74
     0
 49
-12.7
 74
     0
 49
12.7
 74
     0
 49
-12.7
 74
     0
 49
12.7
 74
     0
 49
-12.7
 74
     0
  0
ENDTAB
  0
TABLE
  2
LAYER
  5
2
330
0
100
AcDbSymbolTable
 70
     6
  0
LAYER
  5
10
330
2
100
AcDbSymbolTableRecord
100
AcDbLayerTableRecord
  2
0
 70
     0
 62
     7
  6
Continuous
370
    -3
390
F
  0
LAYER
  5
7E
330
2
100
AcDbSymbolTableRecord
100
AcDbLayerTableRecord
  2
1
 70
     0
 62
     7
  6
Continuous
370
     0
390
F
  0
LAYER
  5
7F
330
2
100
AcDbSymbolTableRecord
100
AcDbLayerTableRecord
  2
2
 70
     0
 62
     7
  6
Continuous
370
     0
390
F
  0
LAYER
  5
80
330
2
100
AcDbSymbolTableRecord
100
AcDbLayerTableRecord
  2
4
 70
     0
 62
     7
  6
Continuous
370
     0
390
F
  0
LAYER
  5
81
330
2
100
AcDbSymbolTableRecord
100
AcDbLayerTableRecord
  2
6
 70
     0
 62
     7
  6
Continuous
370
     0
390
F
  0
LAYER
  5
82
330
2
100
AcDbSymbolTableRecord
100
AcDbLayerTableRecord
  2
DEFPOINTS
 70
     0
 62
     3
  6
DIVIDE
290
     0
370
     0
390
F
  0
ENDTAB
  0
TABLE
  2
STYLE
  5
3
330
0
100
AcDbSymbolTable
 70
     9
  0
STYLE
  5
11
330
3
100
AcDbSymbolTableRecord
100
AcDbTextStyleTableRecord
  2
Standard
 70
     0
 40
0.0
 41
0.8
 50
0.0
 71
     0
 42
8.0
  3
MONOTXT.shx
  4
EXTFONT.shx
  0
STYLE
  5
83
330
3
100
AcDbSymbolTableRecord
100
AcDbTextStyleTableRecord
  2
DIMSTANDARD
 70
     0
 40
0.0
 41
0.75
 50
0.0
 71
     0
 42
8.0
  3
MONOTXT.shx
  4
EXTFONT.shx
  0
STYLE
  5
BB
330
3
100
AcDbSymbolTableRecord
100
AcDbTextStyleTableRecord
  2
MTSTANDARD
 70
     0
 40
0.0
 41
1.0
 50
0.0
 71
     0
 42
8.0
  3
MONOTXT.shx
  4
EXTFONT.shx
  0
STYLE
  5
BC
330
3
100
AcDbSymbolTableRecord
100
AcDbTextStyleTableRecord
  2
MTSTANDARD1
 70
     0
 40
0.0
 41
1.0
 50
0.0
 71
     0
 42
8.0
  3
MONOTXT.shx
  4
EXTFONT.shx
  0
STYLE
  5
C6
330
3
100
AcDbSymbolTableRecord
100
AcDbTextStyleTableRecord
  2
MTSTANDARD2
 70
     0
 40
0.0
 41
1.0
 50
0.0
 71
     0
 42
8.0
  3
MONOTXT.shx
  4
EXTFONT.shx
  0
STYLE
  5
F2
330
3
100
AcDbSymbolTableRecord
100
AcDbTextStyleTableRecord
  2
MTSTANDARD3
 70
     0
 40
0.0
 41
1.0
 50
0.0
 71
     0
 42
8.0
  3
MONOTXT.shx
  4
EXTFONT.shx
  0
STYLE
  5
F4
330
3
100
AcDbSymbolTableRecord
100
AcDbTextStyleTableRecord
  2
MTSTANDARD4
 70
     0
 40
0.0
 41
1.0
 50
0.0
 71
     0
 42
8.0
  3
MONOTXT.shx
  4
EXTFONT.shx
  0
STYLE
  5
17F
330
3
100
AcDbSymbolTableRecord
100
AcDbTextStyleTableRecord
  2
MTSTANDARD5
 70
     0
 40
0.0
 41
1.0
 50
0.0
 71
     0
 42
8.0
  3
MONOTXT.shx
  4
EXTFONT.shx
  0
STYLE
  5
1FB
330
3
100
AcDbSymbolTableRecord
100
AcDbTextStyleTableRecord
  2
MTSTANDARD6
 70
     0
 40
0.0
 41
0.75
 50
0.0
 71
     0
 42
8.0
  3
MONOTXT.shx
  4
EXTFONT.shx
  0
ENDTAB
  0
TABLE
  2
VIEW
  5
6
330
0
100
AcDbSymbolTable
 70
     0
  0
ENDTAB
  0
TABLE
  2
UCS
  5
7
330
0
100
AcDbSymbolTable
 70
     0
  0
ENDTAB
  0
TABLE
  2
APPID
  5
9
330
0
100
AcDbSymbolTable
 70
     2
  0
APPID
  5
12
330
9
100
AcDbSymbolTableRecord
100
AcDbRegAppTableRecord
  2
ACAD
 70
     0
  0
APPID
  5
44C
330
9
100
AcDbSymbolTableRecord
100
AcDbRegAppTableRecord
  2
ACAD_MLEADERVER
 70
     0
  0
ENDTAB
  0
TABLE
  2
DIMSTYLE
  5
A
330
0
100
AcDbSymbolTable
 70
    20
100
AcDbDimStyleTable
  0
DIMSTYLE
105
27
330
A
100
AcDbSymbolTableRecord
100
AcDbDimStyleTableRecord
  2
Standard
 70
     0
 40
2.0
 41
2.0
 42
1.0
 43
7.0
 44
1.0
 73
     0
 74
     0
 77
     3
 78
     8
 79
     2
140
4.0
141
0.0
146
0.5
147
0.0
176
     3
177
     3
271
     3
178
     2
179
     3
271
     3
340
11
342
88
371
    -1
372
    -1
  0
DIMSTYLE
105
107
330
A
100
AcDbSymbolTableRecord
100
AcDbDimStyleTableRecord
  2
DIMSTYEX_1
 70
     0
 40
2.0
 41
2.0
 42
1.0
 43
7.0
 44
1.0
 73
     0
 74
     0
 77
     3
 78
     8
 79
     2
140
4.0
141
0.0
146
0.5
147
0.0
176
     3
177
     3
271
     3
178
     2
179
     3
271
     3
340
11
341
88
342
88
371
    -1
372
    -1
  0
DIMSTYLE
105
10F
330
A
100
AcDbSymbolTableRecord
100
AcDbDimStyleTableRecord
  2
DIMSTYEX_2
 70
     0
 40
2.0
 41
2.0
 42
1.0
 43
7.0
 44
1.0
 73
     0
 74
     0
 77
     3
 78
     8
 79
     2
140
4.0
141
0.0
146
0.5
147
0.0
176
     3
177
     3
271
     3
178
     2
179
     3
271
     3
340
11
341
88
342
88
371
    -1
372
    -1
  0
DIMSTYLE
105
117
330
A
100
AcDbSymbolTableRecord
100
AcDbDimStyleTableRecord
  2
DIMSTYEX_3
 70
     0
 40
2.0
 41
2.0
 42
1.0
 43
7.0
 44
1.0
 73
     0
 74
     0
 77
     3
 78
     8
 79
     2
140
4.0
141
0.0
146
0.5
147
0.0
176
     3
177
     3
271
     3
178
     2
179
     3
271
     3
340
11
341
88
342
88
371
    -1
372
    -1
  0
DIMSTYLE
105
131
330
A
100
AcDbSymbolTableRecord
100
AcDbDimStyleTableRecord
  2
DIMSTYEX_4
 70
     0
 40
2.0
 41
2.0
 42
1.0
 43
7.0
 44
1.0
 73
     0
 74
     0
 77
     3
 78
     8
 79
     2
140
4.0
141
0.0
146
0.5
147
0.0
176
     7
177
     7
271
     3
178
     2
179
     3
271
     3
340
11
341
88
342
88
371
    -1
372
    -1
  0
DIMSTYLE
105
195
330
A
100
AcDbSymbolTableRecord
100
AcDbDimStyleTableRecord
  2
DIMSTYEX_5
 70
     0
 40
2.0
 41
2.0
 42
1.0
 43
7.0
 44
1.0
 73
     0
 74
     0
 77
     3
 78
     8
 79
     2
140
4.0
141
0.0
146
0.5
147
0.0
176
     3
177
     3
271
     3
178
     2
179
     3
271
     3
340
11
341
88
342
88
371
    -1
372
    -1
  0
DIMSTYLE
105
200
102
{ACAD_REACTORS
330
201
102
}
330
A
100
AcDbSymbolTableRecord
100
AcDbDimStyleTableRecord
  2
DIMSTYEX_6
 70
     0
 40
2.0
 41
2.0
 42
1.0
 43
14.0
 44
1.0
 73
     0
 74
     0
 75
     1
 77
     1
 78
     8
 79
     2
140
3.584
141
0.0
146
0.5
147
0.0
173
     1
176
     3
177
     3
271
     3
178
     2
179
     3
271
     3
272
     3
281
     1
340
83
342
88
343
AE
344
88
371
    -1
372
    -1
  0
DIMSTYLE
105
20E
102
{ACAD_REACTORS
330
20F
102
}
330
A
100
AcDbSymbolTableRecord
100
AcDbDimStyleTableRecord
  2
DIMSTYEX_7
 70
     0
 40
2.0
 41
2.0
 42
1.0
 43
7.0
 44
1.0
 73
     0
 74
     0
 77
     3
 78
     8
 79
     2
140
3.584
141
0.0
146
0.5
147
0.0
173
     1
176
     3
177
     3
271
     3
178
     2
179
     3
271
     3
272
     3
340
83
342
88
343
88
344
88
371
    -1
372
    -1
  0
DIMSTYLE
105
21E
330
A
100
AcDbSymbolTableRecord
100
AcDbDimStyleTableRecord
  2
DIMSTYEX_8
 70
     0
 40
2.0
 41
2.0
 42
1.0
 43
7.0
 44
1.0
 73
     0
 74
     0
 77
     3
 78
     8
 79
     2
140
4.0
141
0.0
146
0.5
147
0.0
176
     3
177
     3
271
     3
178
     2
179
     3
271
     3
340
11
341
88
342
88
371
    -1
372
    -1
  0
DIMSTYLE
105
226
330
A
100
AcDbSymbolTableRecord
100
AcDbDimStyleTableRecord
  2
DIMSTYEX_9
 70
     0
 40
2.0
 41
2.0
 42
1.0
 43
7.0
 44
1.0
 73
     0
 74
     0
 77
     3
 78
     8
 79
     2
140
4.0
141
0.0
146
0.5
147
0.0
176
     3
177
     3
271
     3
178
     2
179
     3
271
     3
340
11
341
88
342
88
371
    -1
372
    -1
  0
DIMSTYLE
105
22E
330
A
100
AcDbSymbolTableRecord
100
AcDbDimStyleTableRecord
  2
DIMSTYEX_10
 70
     0
 40
2.0
 41
2.0
 42
1.0
 43
7.0
 44
1.0
 73
     0
 74
     0
 77
     3
 78
     8
 79
     2
140
4.0
141
0.0
146
0.5
147
0.0
176
     3
177
     3
271
     3
178
     2
179
     3
271
     3
340
11
341
88
342
88
371
    -1
372
    -1
  0
DIMSTYLE
105
236
330
A
100
AcDbSymbolTableRecord
100
AcDbDimStyleTableRecord
  2
DIMSTYEX_11
 70
     0
 40
2.0
 41
2.0
 42
1.0
 43
7.0
 44
1.0
 73
     0
 74
     0
 77
     3
 78
     8
 79
     2
140
4.0
141
0.0
146
0.5
147
0.0
176
     3
177
     3
271
     3
178
     2
179
     3
271
     3
340
11
341
88
342
88
371
    -1
372
    -1
  0
DIMSTYLE
105
23E
330
A
100
AcDbSymbolTableRecord
100
AcDbDimStyleTableRecord
  2
DIMSTYEX_12
 70
     0
 40
2.0
 41
2.0
 42
1.0
 43
7.0
 44
1.0
 73
     0
 74
     0
 77
     3
 78
     8
 79
     2
140
4.0
141
0.0
146
0.5
147
0.0
176
     3
177
     3
271
     3
178
     2
179
     3
271
     3
340
11
341
88
342
88
371
    -1
372
    -1
  0
DIMSTYLE
105
246
330
A
100
AcDbSymbolTableRecord
100
AcDbDimStyleTableRecord
  2
DIMSTYEX_13
 70
     0
 40
2.0
 41
2.0
 42
1.0
 43
7.0
 44
1.0
 73
     0
 74
     0
 77
     3
 78
     8
 79
     2
140
4.0
141
0.0
146
0.5
147
0.0
176
     3
177
     3
271
     3
178
     2
179
     3
271
     3
340
11
341
88
342
88
371
    -1
372
    -1
  0
DIMSTYLE
105
253
102
{ACAD_REACTORS
330
254
102
}
330
A
100
AcDbSymbolTableRecord
100
AcDbDimStyleTableRecord
  2
DIMSTYEX_14
 70
     0
 40
2.0
 41
2.0
 42
1.0
 43
7.0
 44
1.0
 73
     0
 74
     0
 75
     1
 77
     1
 78
     8
 79
     2
140
3.584
141
0.0
146
0.5
147
0.0
173
     1
176
     3
177
     3
271
     3
178
     2
179
     3
271
     3
272
     3
281
     1
340
83
342
88
343
AE
344
88
371
    -1
372
    -1
  0
DIMSTYLE
105
266
102
{ACAD_REACTORS
330
267
102
}
330
A
100
AcDbSymbolTableRecord
100
AcDbDimStyleTableRecord
  2
DIMSTYEX_15
 70
     0
 40
2.0
 41
2.0
 42
1.0
 43
0.939504122335336
 44
1.0
 73
     0
 74
     0
 77
     3
 78
     8
 79
     2
140
3.584
141
0.0
146
0.5
147
0.0
173
     1
176
     3
177
     3
271
     3
178
     2
179
     3
271
     3
272
     3
340
83
342
88
343
88
344
88
371
    -1
372
    -1
  0
DIMSTYLE
105
281
102
{ACAD_REACTORS
330
282
102
}
330
A
100
AcDbSymbolTableRecord
100
AcDbDimStyleTableRecord
  2
DIMSTYEX_16
 70
     0
 40
2.0
 41
2.0
 42
1.0
 43
0.0
 44
1.0
 73
     0
 74
     0
 77
     3
 78
     8
 79
     2
140
3.584
141
0.0
146
0.5
147
1.0
173
     1
176
     3
177
     3
271
     3
178
     2
179
     3
271
     3
272
     3
340
83
342
88
343
88
344
88
371
    -1
372
    -1
  0
DIMSTYLE
105
306
102
{ACAD_REACTORS
330
307
102
}
330
A
100
AcDbSymbolTableRecord
100
AcDbDimStyleTableRecord
  2
DIMSTYEX_17
 70
     0
 40
2.0
 41
2.0
 42
1.0
 43
2.969960569123145
 44
1.0
 73
     0
 74
     0
 77
     3
 78
     8
 79
     2
140
3.584
141
0.0
146
0.5
147
0.0
173
     1
176
     3
177
     3
271
     3
178
     2
179
     3
271
     3
272
     3
340
83
342
88
343
88
344
88
371
    -1
372
    -1
  0
DIMSTYLE
105
314
102
{ACAD_REACTORS
330
315
330
342
102
}
330
A
100
AcDbSymbolTableRecord
100
AcDbDimStyleTableRecord
  2
DIMSTYEX_18
 70
     0
 40
2.0
 41
2.0
 42
1.0
 43
0.0
 44
1.0
 73
     0
 74
     0
 77
     3
 78
     8
 79
     2
140
3.584
141
0.0
146
0.5
147
0.0
173
     1
176
     3
177
     3
271
     3
178
     2
179
     3
271
     3
272
     3
340
83
342
88
343
88
344
88
371
    -1
372
    -1
  0
DIMSTYLE
105
334
102
{ACAD_REACTORS
330
335
102
}
330
A
100
AcDbSymbolTableRecord
100
AcDbDimStyleTableRecord
  2
DIMSTYEX_19
 70
     0
 40
2.0
 41
2.0
 42
1.0
 43
108.9163935631128
 44
1.0
 73
     0
 74
     0
 77
     3
 78
     8
 79
     2
140
3.584
141
0.0
146
0.5
147
0.0
173
     1
176
     3
177
     3
271
     3
178
     2
179
     3
271
     3
272
     3
340
83
342
88
343
88
344
88
371
    -1
372
    -1
  0
ENDTAB
  0
TABLE
  2
BLOCK_RECORD
  5
1
330
0
100
AcDbSymbolTable
 70
    41
  0
BLOCK_RECORD
  5
1F
330
1
100
AcDbSymbolTableRecord
100
AcDbBlockTableRecord
  2
*Model_Space
340
22
  0
BLOCK_RECORD
  5
1B
330
1
100
AcDbSymbolTableRecord
100
AcDbBlockTableRecord
  2
*Paper_Space
340
1E
  0
BLOCK_RECORD
  5
84
330
1
100
AcDbSymbolTableRecord
100
AcDbBlockTableRecord
  2
_SMALL
340
0
  0
BLOCK_RECORD
  5
88
330
1
100
AcDbSymbolTableRecord
100
AcDbBlockTableRecord
  2
_OPEN30
340
0
102
{BLKREFS
331
1FA
331
208
331
209
331
24E
331
260
331
261
331
27B
331
27C
331
300
331
301
331
30E
331
30F
331
32E
331
32F
331
33C
331
33D
102
}
  0
BLOCK_RECORD
  5
8E
330
1
100
AcDbSymbolTableRecord
100
AcDbBlockTableRecord
  2
_OBLIQUE
340
0
  0
BLOCK_RECORD
  5
92
330
1
100
AcDbSymbolTableRecord
100
AcDbBlockTableRecord
  2
_DOT
340
0
  0
BLOCK_RECORD
  5
96
330
1
100
AcDbSymbolTableRecord
100
AcDbBlockTableRecord
  2
_DOTSMALL
340
0
  0
BLOCK_RECORD
  5
9A
330
1
100
AcDbSymbolTableRecord
100
AcDbBlockTableRecord
  2
_DATUMFILLED
340
0
  0
BLOCK_RECORD
  5
9E
330
1
100
AcDbSymbolTableRecord
100
AcDbBlockTableRecord
  2
DATUMFILLED2
340
0
  0
BLOCK_RECORD
  5
A2
330
1
100
AcDbSymbolTableRecord
100
AcDbBlockTableRecord
  2
_DATUMBLANK
340
0
  0
BLOCK_RECORD
  5
A8
330
1
100
AcDbSymbolTableRecord
100
AcDbBlockTableRecord
  2
DATUMBLANK2
340
0
  0
BLOCK_RECORD
  5
AE
330
1
100
AcDbSymbolTableRecord
100
AcDbBlockTableRecord
  2
_NONE
340
0
  0
BLOCK_RECORD
  5
B4
330
1
100
AcDbSymbolTableRecord
100
AcDbBlockTableRecord
  2
BLK0
340
0
102
{BLKREFS
331
D4
102
}
  0
BLOCK_RECORD
  5
102
330
1
100
AcDbSymbolTableRecord
100
AcDbBlockTableRecord
  2
BALN0
340
0
102
{BLKREFS
331
109
102
}
  0
BLOCK_RECORD
  5
10A
330
1
100
AcDbSymbolTableRecord
100
AcDbBlockTableRecord
  2
BALN1
340
0
102
{BLKREFS
331
111
102
}
  0
BLOCK_RECORD
  5
112
330
1
100
AcDbSymbolTableRecord
100
AcDbBlockTableRecord
  2
BALN2
340
0
102
{BLKREFS
331
119
102
}
  0
BLOCK_RECORD
  5
11F
330
1
100
AcDbSymbolTableRecord
100
AcDbBlockTableRecord
  2
BLK1
340
0
102
{BLKREFS
331
12F
102
}
  0
BLOCK_RECORD
  5
138
330
1
100
AcDbSymbolTableRecord
100
AcDbBlockTableRecord
  2
MAKR0
340
0
102
{BLKREFS
331
13D
102
}
  0
BLOCK_RECORD
  5
13E
330
1
100
AcDbSymbolTableRecord
100
AcDbBlockTableRecord
  2
MAKR1
340
0
102
{BLKREFS
331
143
102
}
  0
BLOCK_RECORD
  5
14D
330
1
100
AcDbSymbolTableRecord
100
AcDbBlockTableRecord
  2
MAKR2
340
0
102
{BLKREFS
331
152
102
}
  0
BLOCK_RECORD
  5
155
330
1
100
AcDbSymbolTableRecord
100
AcDbBlockTableRecord
  2
MAKR3
340
0
102
{BLKREFS
331
15A
102
}
  0
BLOCK_RECORD
  5
15B
330
1
100
AcDbSymbolTableRecord
100
AcDbBlockTableRecord
  2
MAKR4
340
0
102
{BLKREFS
331
160
102
}
  0
BLOCK_RECORD
  5
161
330
1
100
AcDbSymbolTableRecord
100
AcDbBlockTableRecord
  2
MAKR5
340
0
102
{BLKREFS
331
166
102
}
  0
BLOCK_RECORD
  5
16A
330
1
100
AcDbSymbolTableRecord
100
AcDbBlockTableRecord
  2
MAKR6
340
0
102
{BLKREFS
331
16F
102
}
  0
BLOCK_RECORD
  5
171
330
1
100
AcDbSymbolTableRecord
100
AcDbBlockTableRecord
  2
MAKR7
340
0
102
{BLKREFS
331
176
102
}
  0
BLOCK_RECORD
  5
178
330
1
100
AcDbSymbolTableRecord
100
AcDbBlockTableRecord
  2
MAKR8
340
0
102
{BLKREFS
331
17D
102
}
  0
BLOCK_RECORD
  5
1F5
330
1
100
AcDbSymbolTableRecord
100
AcDbBlockTableRecord
  2
_D1
340
0
  0
BLOCK_RECORD
  5
202
330
1
100
AcDbSymbolTableRecord
100
AcDbBlockTableRecord
  2
_D2
340
0
  0
BLOCK_RECORD
  5
219
330
1
100
AcDbSymbolTableRecord
100
AcDbBlockTableRecord
  2
BALN3
340
0
102
{BLKREFS
331
220
102
}
  0
BLOCK_RECORD
  5
221
330
1
100
AcDbSymbolTableRecord
100
AcDbBlockTableRecord
  2
BALN4
340
0
102
{BLKREFS
331
228
102
}
  0
BLOCK_RECORD
  5
229
330
1
100
AcDbSymbolTableRecord
100
AcDbBlockTableRecord
  2
BALN5
340
0
102
{BLKREFS
331
230
102
}
  0
BLOCK_RECORD
  5
231
330
1
100
AcDbSymbolTableRecord
100
AcDbBlockTableRecord
  2
BALN6
340
0
102
{BLKREFS
331
238
102
}
  0
BLOCK_RECORD
  5
239
330
1
100
AcDbSymbolTableRecord
100
AcDbBlockTableRecord
  2
BALN7
340
0
102
{BLKREFS
331
240
102
}
  0
BLOCK_RECORD
  5
241
330
1
100
AcDbSymbolTableRecord
100
AcDbBlockTableRecord
  2
BALN8
340
0
102
{BLKREFS
331
248
102
}
  0
BLOCK_RECORD
  5
249
330
1
100
AcDbSymbolTableRecord
100
AcDbBlockTableRecord
  2
_D3
340
0
  0
BLOCK_RECORD
  5
25A
330
1
100
AcDbSymbolTableRecord
100
AcDbBlockTableRecord
  2
_D4
340
0
  0
BLOCK_RECORD
  5
275
330
1
100
AcDbSymbolTableRecord
100
AcDbBlockTableRecord
  2
_D5
340
0
  0
BLOCK_RECORD
  5
2FA
330
1
100
AcDbSymbolTableRecord
100
AcDbBlockTableRecord
  2
_D6
340
0
  0
BLOCK_RECORD
  5
308
330
1
100
AcDbSymbolTableRecord
100
AcDbBlockTableRecord
  2
_D7
340
0
  0
BLOCK_RECORD
  5
328
330
1
100
AcDbSymbolTableRecord
100
AcDbBlockTableRecord
  2
_D8
340
0
  0
BLOCK_RECORD
  5
336
330
1
100
AcDbSymbolTableRecord
100
AcDbBlockTableRecord
  2
_D9
340
0
  0
BLOCK_RECORD
  5
343
330
1
100
AcDbSymbolTableRecord
100
AcDbBlockTableRecord
  2
BLK2
340
0
102
{BLKREFS
331
3FB
102
}
  0
ENDTAB
  0
ENDSEC
  0
SECTION
  2
BLOCKS
  0
BLOCK
  5
20
330
1F
100
AcDbEntity
  8
0
100
AcDbBlockBegin
  2
*Model_Space
 70
     0
 10
0.0
 20
0.0
 30
0.0
  3
*Model_Space
  1

  0
ENDBLK
  5
21
330
1F
100
AcDbEntity
  8
0
100
AcDbBlockEnd
  0
BLOCK
  5
1C
330
1B
100
AcDbEntity
 67
     1
  8
0
100
AcDbBlockBegin
  2
*Paper_Space
 70
     0
 10
0.0
 20
0.0
 30
0.0
  3
*Paper_Space
  1

  0
ENDBLK
  5
1D
330
1B
100
AcDbEntity
 67
     1
  8
0
100
AcDbBlockEnd
  0
BLOCK
  5
85
330
84
100
AcDbEntity
  8
0
100
AcDbBlockBegin
  2
_SMALL
 70
     0
 10
0.0
 20
0.0
 30
0.0
  3
_SMALL
  1

  0
CIRCLE
  5
87
330
84
100
AcDbEntity
  8
0
  6
ByBlock
 62
     0
370
    -2
100
AcDbCircle
 10
0.0
 20
0.0
 30
0.0
 40
0.1666666666
  0
CIRCLE
  5
3FC
330
84
100
AcDbEntity
  8
0
  6
ByBlock
 62
     0
370
    -2
100
AcDbCircle
 10
0.0
 20
0.0
 30
0.0
 40
0.1666666666
  0
ENDBLK
  5
86
330
84
100
AcDbEntity
  8
0
100
AcDbBlockEnd
  0
BLOCK
  5
89
330
88
100
AcDbEntity
  8
0
100
AcDbBlockBegin
  2
_OPEN30
 70
     0
 10
0.0
 20
0.0
 30
0.0
  3
_OPEN30
  1

  0
LINE
  5
8B
330
88
100
AcDbEntity
  8
0
  6
ByBlock
 62
     0
370
    -2
100
AcDbLine
 10
-1.0
 20
0.26794919
 30
0.0
 11
0.0
 21
0.0
 31
0.0
  0
LINE
  5
8C
330
88
100
AcDbEntity
  8
0
  6
ByBlock
 62
     0
370
    -2
100
AcDbLine
 10
0.0
 20
0.0
 30
0.0
 11
-1.0
 21
-0.26794919
 31
0.0
  0
LINE
  5
8D
330
88
100
AcDbEntity
  8
0
  6
ByBlock
 62
     0
370
    -2
100
AcDbLine
 10
0.0
 20
0.0
 30
0.0
 11
-1.0
 21
0.0
 31
0.0
  0
LINE
  5
3FD
330
88
100
AcDbEntity
  8
0
  6
ByBlock
 62
     0
370
    -2
100
AcDbLine
 10
-1.0
 20
0.26794919
 30
0.0
 11
0.0
 21
0.0
 31
0.0
  0
LINE
  5
3FE
330
88
100
AcDbEntity
  8
0
  6
ByBlock
 62
     0
370
    -2
100
AcDbLine
 10
0.0
 20
0.0
 30
0.0
 11
-1.0
 21
-0.26794919
 31
0.0
  0
LINE
  5
3FF
330
88
100
AcDbEntity
  8
0
  6
ByBlock
 62
     0
370
    -2
100
AcDbLine
 10
0.0
 20
0.0
 30
0.0
 11
-1.0
 21
0.0
 31
0.0
  0
ENDBLK
  5
8A
330
88
100
AcDbEntity
  8
0
100
AcDbBlockEnd
  0
BLOCK
  5
8F
330
8E
100
AcDbEntity
  8
0
100
AcDbBlockBegin
  2
_OBLIQUE
 70
     0
 10
0.0
 20
0.0
 30
0.0
  3
_OBLIQUE
  1

  0
LINE
  5
91
330
8E
100
AcDbEntity
  8
0
  6
ByBlock
 62
     0
370
    -2
100
AcDbLine
 10
-0.5
 20
-0.5
 30
0.0
 11
0.5
 21
0.5
 31
0.0
  0
LINE
  5
400
330
8E
100
AcDbEntity
  8
0
  6
ByBlock
 62
     0
370
    -2
100
AcDbLine
 10
-0.5
 20
-0.5
 30
0.0
 11
0.5
 21
0.5
 31
0.0
  0
ENDBLK
  5
90
330
8E
100
AcDbEntity
  8
0
100
AcDbBlockEnd
  0
BLOCK
  5
93
330
92
100
AcDbEntity
  8
0
100
AcDbBlockBegin
  2
_DOT
 70
     0
 10
0.0
 20
0.0
 30
0.0
  3
_DOT
  1

  0
LWPOLYLINE
  5
95
330
92
100
AcDbEntity
  8
0
  6
ByBlock
 62
     0
370
    -2
100
AcDbPolyline
 90
        2
 70
     1
 43
0.5
 10
-0.25
 20
0.0
 42
1.0
 10
0.25
 20
0.0
 42
1.0
  0
LWPOLYLINE
  5
401
330
92
100
AcDbEntity
  8
0
  6
ByBlock
 62
     0
370
    -2
100
AcDbPolyline
 90
        2
 70
     1
 43
0.5
 10
-0.25
 20
0.0
 42
1.0
 10
0.25
 20
0.0
 42
1.0
  0
ENDBLK
  5
94
330
92
100
AcDbEntity
  8
0
100
AcDbBlockEnd
  0
BLOCK
  5
97
330
96
100
AcDbEntity
  8
0
100
AcDbBlockBegin
  2
_DOTSMALL
 70
     0
 10
0.0
 20
0.0
 30
0.0
  3
_DOTSMALL
  1

  0
LWPOLYLINE
  5
99
330
96
100
AcDbEntity
  8
0
  6
ByBlock
 62
     0
370
    -2
100
AcDbPolyline
 90
        2
 70
     1
 43
0.5
 10
-0.0625
 20
0.0
 42
1.0
 10
0.0625
 20
0.0
 42
1.0
  0
LWPOLYLINE
  5
402
330
96
100
AcDbEntity
  8
0
  6
ByBlock
 62
     0
370
    -2
100
AcDbPolyline
 90
        2
 70
     1
 43
0.5
 10
-0.0625
 20
0.0
 42
1.0
 10
0.0625
 20
0.0
 42
1.0
  0
ENDBLK
  5
98
330
96
100
AcDbEntity
  8
0
100
AcDbBlockEnd
  0
BLOCK
  5
9B
330
9A
100
AcDbEntity
  8
0
100
AcDbBlockBegin
  2
_DATUMFILLED
 70
     0
 10
0.0
 20
0.0
 30
0.0
  3
_DATUMFILLED
  1

  0
SOLID
  5
9D
330
9A
100
AcDbEntity
  8
0
  6
ByBlock
 62
     0
370
    -2
100
AcDbTrace
 10
0.0
 20
0.57735027
 30
0.0
 11
-1.0
 21
0.0
 31
0.0
 12
0.0
 22
-0.57735027
 32
0.0
 13
0.0
 23
-0.57735027
 33
0.0
  0
SOLID
  5
403
330
9A
100
AcDbEntity
  8
0
  6
ByBlock
 62
     0
370
    -2
100
AcDbTrace
 10
0.0
 20
0.57735027
 30
0.0
 11
-1.0
 21
0.0
 31
0.0
 12
0.0
 22
-0.57735027
 32
0.0
 13
0.0
 23
-0.57735027
 33
0.0
  0
ENDBLK
  5
9C
330
9A
100
AcDbEntity
  8
0
100
AcDbBlockEnd
  0
BLOCK
  5
9F
330
9E
100
AcDbEntity
  8
0
100
AcDbBlockBegin
  2
DATUMFILLED2
 70
     0
 10
0.0
 20
0.0
 30
0.0
  3
DATUMFILLED2
  1

  0
SOLID
  5
A1
330
9E
100
AcDbEntity
  8
0
  6
ByBlock
 62
     0
370
    -2
100
AcDbTrace
 10
0.0
 20
1.0
 30
0.0
 11
-1.0
 21
0.0
 31
0.0
 12
0.0
 22
-1.0
 32
0.0
 13
0.0
 23
-1.0
 33
0.0
  0
SOLID
  5
404
330
9E
100
AcDbEntity
  8
0
  6
ByBlock
 62
     0
370
    -2
100
AcDbTrace
 10
0.0
 20
1.0
 30
0.0
 11
-1.0
 21
0.0
 31
0.0
 12
0.0
 22
-1.0
 32
0.0
 13
0.0
 23
-1.0
 33
0.0
  0
ENDBLK
  5
A0
330
9E
100
AcDbEntity
  8
0
100
AcDbBlockEnd
  0
BLOCK
  5
A3
330
A2
100
AcDbEntity
  8
0
100
AcDbBlockBegin
  2
_DATUMBLANK
 70
     0
 10
0.0
 20
0.0
 30
0.0
  3
_DATUMBLANK
  1

  0
LINE
  5
A5
330
A2
100
AcDbEntity
  8
0
  6
ByBlock
 62
     0
370
    -2
100
AcDbLine
 10
0.0
 20
0.57735027
 30
0.0
 11
-1.0
 21
0.0
 31
0.0
  0
LINE
  5
A6
330
A2
100
AcDbEntity
  8
0
  6
ByBlock
 62
     0
370
    -2
100
AcDbLine
 10
-1.0
 20
0.0
 30
0.0
 11
0.0
 21
-0.57735027
 31
0.0
  0
LINE
  5
A7
330
A2
100
AcDbEntity
  8
0
  6
ByBlock
 62
     0
370
    -2
100
AcDbLine
 10
0.0
 20
-0.57735027
 30
0.0
 11
0.0
 21
0.57735027
 31
0.0
  0
LINE
  5
405
330
A2
100
AcDbEntity
  8
0
  6
ByBlock
 62
     0
370
    -2
100
AcDbLine
 10
0.0
 20
0.57735027
 30
0.0
 11
-1.0
 21
0.0
 31
0.0
  0
LINE
  5
406
330
A2
100
AcDbEntity
  8
0
  6
ByBlock
 62
     0
370
    -2
100
AcDbLine
 10
-1.0
 20
0.0
 30
0.0
 11
0.0
 21
-0.57735027
 31
0.0
  0
LINE
  5
407
330
A2
100
AcDbEntity
  8
0
  6
ByBlock
 62
     0
370
    -2
100
AcDbLine
 10
0.0
 20
-0.57735027
 30
0.0
 11
0.0
 21
0.57735027
 31
0.0
  0
ENDBLK
  5
A4
330
A2
100
AcDbEntity
  8
0
100
AcDbBlockEnd
  0
BLOCK
  5
A9
330
A8
100
AcDbEntity
  8
0
100
AcDbBlockBegin
  2
DATUMBLANK2
 70
     0
 10
0.0
 20
0.0
 30
0.0
  3
DATUMBLANK2
  1

  0
LINE
  5
AB
330
A8
100
AcDbEntity
  8
0
  6
ByBlock
 62
     0
370
    -2
100
AcDbLine
 10
0.0
 20
1.0
 30
0.0
 11
-1.0
 21
0.0
 31
0.0
  0
LINE
  5
AC
330
A8
100
AcDbEntity
  8
0
  6
ByBlock
 62
     0
370
    -2
100
AcDbLine
 10
-1.0
 20
0.0
 30
0.0
 11
0.0
 21
-1.0
 31
0.0
  0
LINE
  5
AD
330
A8
100
AcDbEntity
  8
0
  6
ByBlock
 62
     0
370
    -2
100
AcDbLine
 10
0.0
 20
-1.0
 30
0.0
 11
0.0
 21
1.0
 31
0.0
  0
LINE
  5
408
330
A8
100
AcDbEntity
  8
0
  6
ByBlock
 62
     0
370
    -2
100
AcDbLine
 10
0.0
 20
1.0
 30
0.0
 11
-1.0
 21
0.0
 31
0.0
  0
LINE
  5
409
330
A8
100
AcDbEntity
  8
0
  6
ByBlock
 62
     0
370
    -2
100
AcDbLine
 10
-1.0
 20
0.0
 30
0.0
 11
0.0
 21
-1.0
 31
0.0
  0
LINE
  5
40A
330
A8
100
AcDbEntity
  8
0
  6
ByBlock
 62
     0
370
    -2
100
AcDbLine
 10
0.0
 20
-1.0
 30
0.0
 11
0.0
 21
1.0
 31
0.0
  0
ENDBLK
  5
AA
330
A8
100
AcDbEntity
  8
0
100
AcDbBlockEnd
  0
BLOCK
  5
AF
330
AE
100
AcDbEntity
  8
0
100
AcDbBlockBegin
  2
_NONE
 70
     0
 10
0.0
 20
0.0
 30
0.0
  3
_NONE
  1

  0
ENDBLK
  5
B0
330
AE
100
AcDbEntity
  8
0
100
AcDbBlockEnd
  0
BLOCK
  5
B5
330
B4
100
AcDbEntity
  8
0
100
AcDbBlockBegin
  2
BLK0
 70
     0
 10
-217.6625483413898
 20
-1825.991641020337
 30
0.0
  3
BLK0
  1

  0
LINE
  5
B7
330
B4
100
AcDbEntity
  8
1
  6
Continuous
 62
     7
100
AcDbLine
 10
-251.6625483413898
 20
-1825.991641020337
 30
0.0
 11
-251.6625483413898
 21
-1859.991641020337
 31
0.0
  0
LINE
  5
B8
330
B4
100
AcDbEntity
  8
1
  6
Continuous
 62
     7
100
AcDbLine
 10
-261.66253834139
 20
-1859.991641020337
 30
0.0
 11
-261.66253834139
 21
-1825.991641020337
 31
0.0
  0
LINE
  5
B9
330
B4
100
AcDbEntity
  8
1
  6
Continuous
 62
     7
100
AcDbLine
 10
-295.6625383413898
 20
-1825.991641020337
 30
0.0
 11
-295.6625383413898
 21
-1859.991641020337
 31
0.0
  0
LINE
  5
BA
330
B4
100
AcDbEntity
  8
1
  6
Continuous
 62
     7
100
AcDbLine
 10
-305.6625283413898
 20
-1859.991641020337
 30
0.0
 11
-305.6625283413898
 21
-1825.991641020337
 31
0.0
  0
MTEXT
  5
BD
330
B4
100
AcDbEntity
  8
1
  6
Continuous
 62
     7
100
AcDbMText
 10
-304.1625333413899
 20
-1850.772539755229
 30
0.0
 40
7.0
 41
0.0
 71
     7
 72
     5
  1
{\fＭＳ 明朝|b0|i0|c128|p17;\W1.0;査}
  7
MTSTANDARD1
 73
     1
 44
0.8392857142857144
  0
MTEXT
  5
BE
330
B4
100
AcDbEntity
  8
1
  6
Continuous
 62
     7
100
AcDbMText
 10
-260.1625433413899
 20
-1850.772539755229
 30
0.0
 40
7.0
 41
0.0
 71
     7
 72
     5
  1
{\fＭＳ 明朝|b0|i0|c128|p17;\W1.0;認}
  7
MTSTANDARD1
 73
     1
 44
0.8392857142857144
  0
MTEXT
  5
BF
330
B4
100
AcDbEntity
  8
1
  6
Continuous
 62
     7
100
AcDbMText
 10
-260.1625433413899
 20
-1842.772547755229
 30
0.0
 40
7.0
 41
0.0
 71
     7
 72
     5
  1
{\fＭＳ 明朝|b0|i0|c128|p17;\W1.0;承}
  7
MTSTANDARD1
 73
     1
 44
0.8392857142857144
  0
MTEXT
  5
C0
330
B4
100
AcDbEntity
  8
1
  6
Continuous
 62
     7
100
AcDbMText
 10
-304.1625333413899
 20
-1842.772547755229
 30
0.0
 40
7.0
 41
0.0
 71
     7
 72
     5
  1
{\fＭＳ 明朝|b0|i0|c128|p17;\W1.0;照}
  7
MTSTANDARD1
 73
     1
 44
0.8392857142857144
  0
CIRCLE
  5
C1
330
B4
100
AcDbEntity
  8
1
  6
Continuous
 62
     7
100
AcDbCircle
 10
-322.7279553507358
 20
-1843.093510506318
 30
0.0
 40
16.0
  0
LINE
  5
C2
330
B4
100
AcDbEntity
  8
1
  6
Continuous
 62
     7
100
AcDbLine
 10
-338.2198887355655
 20
-1839.093510506318
 30
0.0
 11
-307.236021965906
 21
-1839.093510506318
 31
0.0
  0
LINE
  5
C3
330
B4
100
AcDbEntity
  8
1
  6
Continuous
 62
     7
100
AcDbLine
 10
-338.2198887355655
 20
-1847.093510506318
 30
0.0
 11
-307.236021965906
 21
-1847.093510506318
 31
0.0
  0
MTEXT
  5
C4
330
B4
100
AcDbEntity
  8
1
  6
Continuous
 62
     7
100
AcDbMText
 10
-326.727955350736
 20
-1837.093510506318
 30
0.0
 40
8.0
 41
0.0
 71
     7
 72
     5
  1
{\fＭＳ 明朝|b0|i0|c128|p17;\W1.0;笛}
  7
MTSTANDARD
 73
     1
 44
0.78125
  0
MTEXT
  5
C5
330
B4
100
AcDbEntity
  8
1
  6
Continuous
 62
     7
100
AcDbMText
 10
-326.727955350736
 20
-1857.093510506318
 30
0.0
 40
8.0
 41
0.0
 71
     7
 72
     5
  1
{\fＭＳ 明朝|b0|i0|c128|p17;\W1.0;木}
  7
MTSTANDARD
 73
     1
 44
0.78125
  0
MTEXT
  5
C7
330
B4
100
AcDbEntity
  8
1
  6
Continuous
 62
     7
100
AcDbMText
 10
-335.227955350736
 20
-1845.593510506318
 30
0.0
 40
5.0
 41
0.0
 71
     7
 72
     5
  1
{\fＭＳ 明朝|b0|i0|c128|p17;\W1.0;2015.04.08}
  7
MTSTANDARD2
 73
     1
 44
0.875
  0
CIRCLE
  5
C8
330
B4
100
AcDbEntity
  8
1
  6
Continuous
 62
     7
100
AcDbCircle
 10
-278.6532159114834
 20
-1843.093510506318
 30
0.0
 40
16.0
  0
LINE
  5
C9
330
B4
100
AcDbEntity
  8
1
  6
Continuous
 62
     7
100
AcDbLine
 10
-294.1451492963131
 20
-1839.093510506318
 30
0.0
 11
-263.1612825266536
 21
-1839.093510506318
 31
0.0
  0
LINE
  5
CA
330
B4
100
AcDbEntity
  8
1
  6
Continuous
 62
     7
100
AcDbLine
 10
-294.1451492963131
 20
-1847.093510506318
 30
0.0
 11
-263.1612825266536
 21
-1847.093510506318
 31
0.0
  0
CIRCLE
  5
CB
330
B4
100
AcDbEntity
  8
1
  6
Continuous
 62
     7
100
AcDbCircle
 10
-234.5784764722309
 20
-1843.093510506318
 30
0.0
 40
16.0
  0
LINE
  5
CC
330
B4
100
AcDbEntity
  8
1
  6
Continuous
 62
     7
100
AcDbLine
 10
-250.0704098570607
 20
-1839.093510506318
 30
0.0
 11
-219.0865430874012
 21
-1839.093510506318
 31
0.0
  0
LINE
  5
CD
330
B4
100
AcDbEntity
  8
1
  6
Continuous
 62
     7
100
AcDbLine
 10
-250.0704098570607
 20
-1847.093510506318
 30
0.0
 11
-219.0865430874012
 21
-1847.093510506318
 31
0.0
  0
MTEXT
  5
CE
330
B4
100
AcDbEntity
  8
1
  6
Continuous
 62
     7
100
AcDbMText
 10
-282.6532159114836
 20
-1837.093510506318
 30
0.0
 40
8.0
 41
0.0
 71
     7
 72
     5
  1
{\fＭＳ 明朝|b0|i0|c128|p17;\W1.0;野}
  7
MTSTANDARD
 73
     1
 44
0.78125
  0
MTEXT
  5
CF
330
B4
100
AcDbEntity
  8
1
  6
Continuous
 62
     7
100
AcDbMText
 10
-282.6532159114836
 20
-1857.093510506318
 30
0.0
 40
8.0
 41
0.0
 71
     7
 72
     5
  1
{\fＭＳ 明朝|b0|i0|c128|p17;\W1.0;島}
  7
MTSTANDARD
 73
     1
 44
0.78125
  0
MTEXT
  5
D0
330
B4
100
AcDbEntity
  8
1
  6
Continuous
 62
     7
100
AcDbMText
 10
-291.1532159114836
 20
-1845.593510506318
 30
0.0
 40
5.0
 41
0.0
 71
     7
 72
     5
  1
{\fＭＳ 明朝|b0|i0|c128|p17;\W1.0;2015.04.08}
  7
MTSTANDARD2
 73
     1
 44
0.875
  0
MTEXT
  5
D1
330
B4
100
AcDbEntity
  8
1
  6
Continuous
 62
     7
100
AcDbMText
 10
-238.5784764722312
 20
-1837.093510506318
 30
0.0
 40
8.0
 41
0.0
 71
     7
 72
     5
  1
{\fＭＳ 明朝|b0|i0|c128|p17;\W1.0;野}
  7
MTSTANDARD
 73
     1
 44
0.78125
  0
MTEXT
  5
D2
330
B4
100
AcDbEntity
  8
1
  6
Continuous
 62
     7
100
AcDbMText
 10
-238.5784764722312
 20
-1857.093510506318
 30
0.0
 40
8.0
 41
0.0
 71
     7
 72
     5
  1
{\fＭＳ 明朝|b0|i0|c128|p17;\W1.0;島}
  7
MTSTANDARD
 73
     1
 44
0.78125
  0
MTEXT
  5
D3
330
B4
100
AcDbEntity
  8
1
  6
Continuous
 62
     7
100
AcDbMText
 10
-247.0784764722312
 20
-1845.593510506318
 30
0.0
 40
5.0
 41
0.0
 71
     7
 72
     5
  1
{\fＭＳ 明朝|b0|i0|c128|p17;\W1.0;2015.04.08}
  7
MTSTANDARD2
 73
     1
 44
0.875
  0
ENDBLK
  5
B6
330
B4
100
AcDbEntity
  8
0
100
AcDbBlockEnd
  0
BLOCK
  5
103
330
102
100
AcDbEntity
  8
0
100
AcDbBlockBegin
  2
BALN0
 70
     0
 10
0.0
 20
0.0
 30
0.0
  3
BALN0
  1

  0
CIRCLE
  5
105
330
102
100
AcDbEntity
  8
1
  6
ByBlock
 62
     3
100
AcDbCircle
 10
31.92863491569926
 20
-14.48836679602118
 30
0.0
 40
8.0
  0
MTEXT
  5
106
330
102
100
AcDbEntity
  8
1
  6
Continuous
 62
     2
100
AcDbMText
 10
29.92863491569926
 20
-18.48836679602118
 30
0.0
 40
8.0
 41
0.0
 71
     7
 72
     5
  1
{\fＭＳ ゴシック|b0|i0|c128|p49;\W1.0;7}
  7
MTSTANDARD
 73
     1
 44
0.9375
  0
LEADER
  5
108
330
102
100
AcDbEntity
  8
1
  6
ByBlock
 62
     3
100
AcDbLeader
  3
DIMSTYEX_1
 76
     2
 10
0.0
 20
0.0
 30
0.0
 10
24.64358592112513
 20
-11.18260498568844
 30
0.0
1001
ACAD
1000
DSTYLE
1002
{
1070
   176
1070
     0
1002
}
  0
ENDBLK
  5
104
330
102
100
AcDbEntity
  8
0
100
AcDbBlockEnd
  0
BLOCK
  5
10B
330
10A
100
AcDbEntity
  8
0
100
AcDbBlockBegin
  2
BALN1
 70
     0
 10
0.0
 20
0.0
 30
0.0
  3
BALN1
  1

  0
CIRCLE
  5
10D
330
10A
100
AcDbEntity
  8
1
  6
ByBlock
 62
     3
100
AcDbCircle
 10
44.0587874541003
 20
-6.071199191109372
 30
0.0
 40
8.0
  0
MTEXT
  5
10E
330
10A
100
AcDbEntity
  8
1
  6
Continuous
 62
     2
100
AcDbMText
 10
42.0587874541003
 20
-10.07119919110937
 30
0.0
 40
8.0
 41
0.0
 71
     7
 72
     5
  1
{\fＭＳ ゴシック|b0|i0|c128|p49;\W1.0;8}
  7
MTSTANDARD
 73
     1
 44
0.9375
  0
LEADER
  5
110
330
10A
100
AcDbEntity
  8
1
  6
ByBlock
 62
     3
100
AcDbLeader
  3
DIMSTYEX_2
 76
     2
 10
0.0
 20
0.0
 30
0.0
 10
36.13367544931892
 20
-4.979137053834142
 30
0.0
1001
ACAD
1000
DSTYLE
1002
{
1070
   176
1070
     0
1002
}
  0
ENDBLK
  5
10C
330
10A
100
AcDbEntity
  8
0
100
AcDbBlockEnd
  0
BLOCK
  5
113
330
112
100
AcDbEntity
  8
0
100
AcDbBlockBegin
  2
BALN2
 70
     0
 10
0.0
 20
0.0
 30
0.0
  3
BALN2
  1

  0
CIRCLE
  5
115
330
112
100
AcDbEntity
  8
1
  6
ByBlock
 62
     3
100
AcDbCircle
 10
19.89377690838649
 20
19.5677999102254
 30
0.0
 40
8.0
  0
MTEXT
  5
116
330
112
100
AcDbEntity
  8
1
  6
Continuous
 62
     2
100
AcDbMText
 10
17.89377690838649
 20
15.5677999102254
 30
0.0
 40
8.0
 41
0.0
 71
     7
 72
     5
  1
{\fＭＳ ゴシック|b0|i0|c128|p49;\W1.0;9}
  7
MTSTANDARD
 73
     1
 44
0.9375
  0
LEADER
  5
118
330
112
100
AcDbEntity
  8
1
  6
ByBlock
 62
     3
100
AcDbLeader
  3
DIMSTYEX_3
 76
     2
 10
0.0
 20
0.0
 30
0.0
 10
14.19038813885219
 20
13.95786617233241
 30
0.0
1001
ACAD
1000
DSTYLE
1002
{
1070
   176
1070
     0
1002
}
  0
ENDBLK
  5
114
330
112
100
AcDbEntity
  8
0
100
AcDbBlockEnd
  0
BLOCK
  5
120
330
11F
100
AcDbEntity
  8
0
100
AcDbBlockBegin
  2
BLK1
 70
     0
 10
-366.4106053654475
 20
-1572.95885565507
 30
0.0
  3
BLK1
  1

  0
LINE
  5
122
330
11F
100
AcDbEntity
  8
1
  6
PHANTOM2
 62
     7
100
AcDbLine
 10
-309.4106053654459
 20
-1572.95885565507
 30
0.0
 11
-316.4106053654475
 21
-1572.95885565507
 31
0.0
  0
LINE
  5
123
330
11F
100
AcDbEntity
  8
1
  6
PHANTOM2
 62
     7
100
AcDbLine
 10
-416.4106053654475
 20
-1572.95885565507
 30
0.0
 11
-423.4106053654493
 21
-1572.95885565507
 31
0.0
  0
LINE
  5
124
330
11F
100
AcDbEntity
  8
1
  6
PHANTOM2
 62
     7
100
AcDbLine
 10
-423.4106053654493
 20
-1526.758855654771
 30
0.0
 11
-423.4106053654493
 21
-1572.95885565507
 31
0.0
  0
LINE
  5
125
330
11F
100
AcDbEntity
  8
1
  6
PHANTOM2
 62
     7
100
AcDbLine
 10
-309.4106053654493
 20
-1526.758855655019
 30
0.0
 11
-309.4106053654457
 21
-1572.95885565507
 31
0.0
  0
LINE
  5
126
330
11F
100
AcDbEntity
  8
1
  6
PHANTOM2
 62
     7
100
AcDbLine
 10
-311.2933553654459
 20
-1518.958855655072
 30
0.0
 11
-311.0496053654476
 21
-1526.758855655019
 31
0.0
  0
LINE
  5
127
330
11F
100
AcDbEntity
  8
1
  6
PHANTOM2
 62
     7
100
AcDbLine
 10
-309.814355365446
 20
-1518.958855655072
 30
0.0
 11
-309.5706053654476
 21
-1526.758855655019
 31
0.0
  0
LINE
  5
128
330
11F
100
AcDbEntity
  8
1
  6
PHANTOM2
 62
     7
100
AcDbLine
 10
-416.4106053654475
 20
-1490.958855655068
 30
0.0
 11
-416.4106053654475
 21
-1572.95885565507
 31
0.0
  0
LINE
  5
129
330
11F
100
AcDbEntity
  8
1
  6
PHANTOM2
 62
     7
100
AcDbLine
 10
-316.4106053654475
 20
-1518.958855655072
 30
0.0
 11
-316.4106053654475
 21
-1572.95885565507
 31
0.0
  0
LINE
  5
12A
330
11F
100
AcDbEntity
  8
1
  6
PHANTOM2
 62
     7
100
AcDbLine
 10
-309.4106053654609
 20
-1526.758855655019
 30
0.0
 11
-311.0496053654476
 21
-1526.758855655019
 31
0.0
  0
LINE
  5
12B
330
11F
100
AcDbEntity
  8
1
  6
PHANTOM2
 62
     7
100
AcDbLine
 10
-422.1318553654476
 20
-1490.958855655019
 30
0.0
 11
-416.4106053654475
 21
-1490.958855655068
 31
0.0
  0
LINE
  5
12C
330
11F
100
AcDbEntity
  8
1
  6
PHANTOM2
 62
     7
100
AcDbLine
 10
-420.6528553654491
 20
-1490.958855655068
 30
0.0
 11
-421.7716053654474
 21
-1526.758855655019
 31
0.0
  0
LINE
  5
12D
330
11F
100
AcDbEntity
  8
1
  6
PHANTOM2
 62
     7
100
AcDbLine
 10
-422.1318553654489
 20
-1490.958855655068
 30
0.0
 11
-423.2506053654474
 21
-1526.758855655019
 31
0.0
  0
LINE
  5
12E
330
11F
100
AcDbEntity
  8
1
  6
PHANTOM2
 62
     7
100
AcDbLine
 10
-423.4106053654341
 20
-1526.758855655019
 30
0.0
 11
-421.7716053654474
 21
-1526.758855655019
 31
0.0
  0
ENDBLK
  5
121
330
11F
100
AcDbEntity
  8
0
100
AcDbBlockEnd
  0
BLOCK
  5
139
330
138
100
AcDbEntity
  8
0
100
AcDbBlockBegin
  2
MAKR0
 70
     0
 10
-616.1778342782004
 20
-1719.268007547695
 30
0.0
  3
MAKR0
  1

  0
CIRCLE
  5
13B
330
138
100
AcDbEntity
  8
1
  6
Continuous
 62
     3
100
AcDbCircle
 10
-616.1778342782004
 20
-1719.268007547695
 30
0.0
 40
7.0
  0
MTEXT
  5
13C
330
138
100
AcDbEntity
  8
1
  6
Continuous
 62
     2
100
AcDbMText
 10
-618.1778342782004
 20
-1723.268007547695
 30
0.0
 40
8.0
 41
0.0
 71
     7
 72
     5
  1
{\fＭＳ ゴシック|b0|i0|c128|p49;\W1.0;1}
  7
MTSTANDARD
 73
     1
 44
0.8125
  0
ENDBLK
  5
13A
330
138
100
AcDbEntity
  8
0
100
AcDbBlockEnd
  0
BLOCK
  5
13F
330
13E
100
AcDbEntity
  8
0
100
AcDbBlockBegin
  2
MAKR1
 70
     0
 10
-616.1778342782004
 20
-1735.268007547694
 30
0.0
  3
MAKR1
  1

  0
CIRCLE
  5
141
330
13E
100
AcDbEntity
  8
1
  6
Continuous
 62
     3
100
AcDbCircle
 10
-616.1778342782004
 20
-1735.268007547694
 30
0.0
 40
7.0
  0
MTEXT
  5
142
330
13E
100
AcDbEntity
  8
1
  6
Continuous
 62
     2
100
AcDbMText
 10
-618.1778342782004
 20
-1739.268007547694
 30
0.0
 40
8.0
 41
0.0
 71
     7
 72
     5
  1
{\fＭＳ ゴシック|b0|i0|c128|p49;\W1.0;2}
  7
MTSTANDARD
 73
     1
 44
0.8125
  0
ENDBLK
  5
140
330
13E
100
AcDbEntity
  8
0
100
AcDbBlockEnd
  0
BLOCK
  5
14E
330
14D
100
AcDbEntity
  8
0
100
AcDbBlockBegin
  2
MAKR2
 70
     0
 10
-616.1778342782063
 20
-1751.268007547694
 30
0.0
  3
MAKR2
  1

  0
CIRCLE
  5
150
330
14D
100
AcDbEntity
  8
1
  6
Continuous
 62
     3
100
AcDbCircle
 10
-616.1778342782063
 20
-1751.268007547694
 30
0.0
 40
7.0
  0
MTEXT
  5
151
330
14D
100
AcDbEntity
  8
1
  6
Continuous
 62
     2
100
AcDbMText
 10
-618.1778342782063
 20
-1755.268007547694
 30
0.0
 40
8.0
 41
0.0
 71
     7
 72
     5
  1
{\fＭＳ ゴシック|b0|i0|c128|p49;\W1.0;3}
  7
MTSTANDARD
 73
     1
 44
0.8125
  0
ENDBLK
  5
14F
330
14D
100
AcDbEntity
  8
0
100
AcDbBlockEnd
  0
BLOCK
  5
156
330
155
100
AcDbEntity
  8
0
100
AcDbBlockBegin
  2
MAKR3
 70
     0
 10
-616.1778342782068
 20
-1767.268007547694
 30
0.0
  3
MAKR3
  1

  0
CIRCLE
  5
158
330
155
100
AcDbEntity
  8
1
  6
Continuous
 62
     3
100
AcDbCircle
 10
-616.1778342782068
 20
-1767.268007547694
 30
0.0
 40
7.0
  0
MTEXT
  5
159
330
155
100
AcDbEntity
  8
1
  6
Continuous
 62
     2
100
AcDbMText
 10
-618.1778342782068
 20
-1771.268007547694
 30
0.0
 40
8.0
 41
0.0
 71
     7
 72
     5
  1
{\fＭＳ ゴシック|b0|i0|c128|p49;\W1.0;4}
  7
MTSTANDARD
 73
     1
 44
0.8125
  0
ENDBLK
  5
157
330
155
100
AcDbEntity
  8
0
100
AcDbBlockEnd
  0
BLOCK
  5
15C
330
15B
100
AcDbEntity
  8
0
100
AcDbBlockBegin
  2
MAKR4
 70
     0
 10
-616.177834278199
 20
-1783.268007547694
 30
0.0
  3
MAKR4
  1

  0
CIRCLE
  5
15E
330
15B
100
AcDbEntity
  8
1
  6
Continuous
 62
     3
100
AcDbCircle
 10
-616.177834278199
 20
-1783.268007547694
 30
0.0
 40
7.0
  0
MTEXT
  5
15F
330
15B
100
AcDbEntity
  8
1
  6
Continuous
 62
     2
100
AcDbMText
 10
-618.177834278199
 20
-1787.268007547694
 30
0.0
 40
8.0
 41
0.0
 71
     7
 72
     5
  1
{\fＭＳ ゴシック|b0|i0|c128|p49;\W1.0;5}
  7
MTSTANDARD
 73
     1
 44
0.8125
  0
ENDBLK
  5
15D
330
15B
100
AcDbEntity
  8
0
100
AcDbBlockEnd
  0
BLOCK
  5
162
330
161
100
AcDbEntity
  8
0
100
AcDbBlockBegin
  2
MAKR5
 70
     0
 10
-616.177834278199
 20
-1799.268007547694
 30
0.0
  3
MAKR5
  1

  0
CIRCLE
  5
164
330
161
100
AcDbEntity
  8
1
  6
Continuous
 62
     3
100
AcDbCircle
 10
-616.177834278199
 20
-1799.268007547694
 30
0.0
 40
7.0
  0
MTEXT
  5
165
330
161
100
AcDbEntity
  8
1
  6
Continuous
 62
     2
100
AcDbMText
 10
-618.177834278199
 20
-1803.268007547694
 30
0.0
 40
8.0
 41
0.0
 71
     7
 72
     5
  1
{\fＭＳ ゴシック|b0|i0|c128|p49;\W1.0;6}
  7
MTSTANDARD
 73
     1
 44
0.8125
  0
ENDBLK
  5
163
330
161
100
AcDbEntity
  8
0
100
AcDbBlockEnd
  0
BLOCK
  5
16B
330
16A
100
AcDbEntity
  8
0
100
AcDbBlockBegin
  2
MAKR6
 70
     0
 10
-616.177834278205
 20
-1815.268007547694
 30
0.0
  3
MAKR6
  1

  0
CIRCLE
  5
16D
330
16A
100
AcDbEntity
  8
1
  6
Continuous
 62
     3
100
AcDbCircle
 10
-616.177834278205
 20
-1815.268007547694
 30
0.0
 40
7.0
  0
MTEXT
  5
16E
330
16A
100
AcDbEntity
  8
1
  6
Continuous
 62
     2
100
AcDbMText
 10
-618.177834278205
 20
-1819.268007547694
 30
0.0
 40
8.0
 41
0.0
 71
     7
 72
     5
  1
{\fＭＳ ゴシック|b0|i0|c128|p49;\W1.0;7}
  7
MTSTANDARD
 73
     1
 44
0.8125
  0
ENDBLK
  5
16C
330
16A
100
AcDbEntity
  8
0
100
AcDbBlockEnd
  0
BLOCK
  5
172
330
171
100
AcDbEntity
  8
0
100
AcDbBlockBegin
  2
MAKR7
 70
     0
 10
-616.177834278205
 20
-1831.268007547693
 30
0.0
  3
MAKR7
  1

  0
CIRCLE
  5
174
330
171
100
AcDbEntity
  8
1
  6
Continuous
 62
     3
100
AcDbCircle
 10
-616.177834278205
 20
-1831.268007547693
 30
0.0
 40
7.0
  0
MTEXT
  5
175
330
171
100
AcDbEntity
  8
1
  6
Continuous
 62
     2
100
AcDbMText
 10
-618.177834278205
 20
-1835.268007547693
 30
0.0
 40
8.0
 41
0.0
 71
     7
 72
     5
  1
{\fＭＳ ゴシック|b0|i0|c128|p49;\W1.0;8}
  7
MTSTANDARD
 73
     1
 44
0.8125
  0
ENDBLK
  5
173
330
171
100
AcDbEntity
  8
0
100
AcDbBlockEnd
  0
BLOCK
  5
179
330
178
100
AcDbEntity
  8
0
100
AcDbBlockBegin
  2
MAKR8
 70
     0
 10
-616.177834278205
 20
-1847.268007547691
 30
0.0
  3
MAKR8
  1

  0
CIRCLE
  5
17B
330
178
100
AcDbEntity
  8
1
  6
Continuous
 62
     3
100
AcDbCircle
 10
-616.177834278205
 20
-1847.268007547691
 30
0.0
 40
7.0
  0
MTEXT
  5
17C
330
178
100
AcDbEntity
  8
1
  6
Continuous
 62
     2
100
AcDbMText
 10
-618.177834278205
 20
-1851.268007547691
 30
0.0
 40
8.0
 41
0.0
 71
     7
 72
     5
  1
{\fＭＳ ゴシック|b0|i0|c128|p49;\W1.0;9}
  7
MTSTANDARD
 73
     1
 44
0.8125
  0
ENDBLK
  5
17A
330
178
100
AcDbEntity
  8
0
100
AcDbBlockEnd
  0
BLOCK
  5
1F6
330
1F5
100
AcDbEntity
  8
0
100
AcDbBlockBegin
  2
_D1
 70
     0
 10
0.0
 20
0.0
 30
0.0
  3
_D1
  1

  0
LINE
  5
1F8
330
1F5
100
AcDbEntity
  8
1
  6
ByBlock
 62
     3
100
AcDbLine
 10
-448.9106053654476
 20
-1462.958855655069
 30
0.0
 11
-448.9106053654476
 21
-1422.735390261254
 31
0.0
  0
LINE
  5
1F9
330
1F5
100
AcDbEntity
  8
1
  6
ByBlock
 62
     3
100
AcDbLine
 10
-448.9106053654476
 20
-1424.735390261254
 30
0.0
 11
-345.9106053654476
 21
-1424.735390261254
 31
0.0
  0
INSERT
  5
1FA
330
1F5
100
AcDbEntity
  8
1
  6
ByBlock
 62
     3
100
AcDbBlockReference
  2
_OPEN30
 10
-448.9106053654476
 20
-1424.735390261254
 30
0.0
 41
3.939231012048822
 42
3.939231012048822
 43
3.939231012048822
 50
180.0
  0
MTEXT
  5
1FC
330
1F5
100
AcDbEntity
  8
1
  6
Continuous
 62
     2
100
AcDbMText
 10
-379.9106053654476
 20
-1424.735390261254
 30
0.0
 40
8.0
 41
0.0
 71
     7
 72
     5
  1
φ１６５
  7
MTSTANDARD6
 73
     1
 44
0.9375
  0
POINT
  5
1FD
330
1F5
100
AcDbEntity
  8
DEFPOINTS
  6
ByBlock
 62
     3
100
AcDbPoint
 10
-448.9106053654476
 20
-1424.735390261254
 30
0.0
  0
POINT
  5
1FE
330
1F5
100
AcDbEntity
  8
DEFPOINTS
  6
ByBlock
 62
     3
100
AcDbPoint
 10
-448.9106053654476
 20
-1464.958855655069
 30
0.0
  0
POINT
  5
1FF
330
1F5
100
AcDbEntity
  8
DEFPOINTS
  6
ByBlock
 62
     3
100
AcDbPoint
 10
-283.9106053654476
 20
-1464.958855655076
 30
0.0
  0
ENDBLK
  5
1F7
330
1F5
100
AcDbEntity
  8
0
100
AcDbBlockEnd
  0
BLOCK
  5
203
330
202
100
AcDbEntity
  8
0
100
AcDbBlockBegin
  2
_D2
 70
     0
 10
0.0
 20
0.0
 30
0.0
  3
_D2
  1

  0
LINE
  5
205
330
202
100
AcDbEntity
  8
1
  6
ByBlock
 62
     3
100
AcDbLine
 10
-460.4106053654549
 20
-1462.958855655026
 30
0.0
 11
-460.4106053654549
 21
-1408.735390261254
 31
0.0
  0
LINE
  5
206
330
202
100
AcDbEntity
  8
1
  6
ByBlock
 62
     3
100
AcDbLine
 10
-460.4106053654549
 20
-1410.735390261254
 30
0.0
 11
-272.4106053654424
 21
-1410.735390261254
 31
0.0
  0
LINE
  5
207
330
202
100
AcDbEntity
  8
1
  6
ByBlock
 62
     3
100
AcDbLine
 10
-272.4106053654424
 20
-1462.958855655048
 30
0.0
 11
-272.4106053654424
 21
-1408.735390261254
 31
0.0
  0
INSERT
  5
208
330
202
100
AcDbEntity
  8
1
  6
ByBlock
 62
     3
100
AcDbBlockReference
  2
_OPEN30
 10
-460.4106053654549
 20
-1410.735390261254
 30
0.0
 41
3.939231012048822
 42
3.939231012048822
 43
3.939231012048822
 50
180.0
  0
INSERT
  5
209
330
202
100
AcDbEntity
  8
1
  6
ByBlock
 62
     3
100
AcDbBlockReference
  2
_OPEN30
 10
-272.4106053654424
 20
-1410.735390261254
 30
0.0
 41
3.939231012048822
 42
3.939231012048822
 43
3.939231012048822
  0
MTEXT
  5
20A
330
202
100
AcDbEntity
  8
1
  6
Continuous
 62
     2
100
AcDbMText
 10
-379.9106053654486
 20
-1410.735390261254
 30
0.0
 40
8.0
 41
0.0
 71
     7
 72
     5
  1
φ１８８
  7
MTSTANDARD6
 73
     1
 44
0.9375
  0
POINT
  5
20B
330
202
100
AcDbEntity
  8
DEFPOINTS
  6
ByBlock
 62
     3
100
AcDbPoint
 10
-460.4106053654549
 20
-1464.958855655026
 30
0.0
  0
POINT
  5
20C
330
202
100
AcDbEntity
  8
DEFPOINTS
  6
ByBlock
 62
     3
100
AcDbPoint
 10
-272.4106053654424
 20
-1464.958855655048
 30
0.0
  0
POINT
  5
20D
330
202
100
AcDbEntity
  8
DEFPOINTS
  6
ByBlock
 62
     3
100
AcDbPoint
 10
-272.4106053654424
 20
-1410.735390261254
 30
0.0
  0
ENDBLK
  5
204
330
202
100
AcDbEntity
  8
0
100
AcDbBlockEnd
  0
BLOCK
  5
21A
330
219
100
AcDbEntity
  8
0
100
AcDbBlockBegin
  2
BALN3
 70
     0
 10
0.0
 20
0.0
 30
0.0
  3
BALN3
  1

  0
CIRCLE
  5
21C
330
219
100
AcDbEntity
  8
1
  6
ByBlock
 62
     3
100
AcDbCircle
 10
-36.82910556359036
 20
-24.99999999972329
 30
0.0
 40
8.0
  0
MTEXT
  5
21D
330
219
100
AcDbEntity
  8
1
  6
Continuous
 62
     2
100
AcDbMText
 10
-38.82910556359036
 20
-28.99999999972329
 30
0.0
 40
8.0
 41
0.0
 71
     7
 72
     5
  1
{\fＭＳ ゴシック|b0|i0|c128|p49;\W1.0;6}
  7
MTSTANDARD
 73
     1
 44
0.9375
  0
LEADER
  5
21F
330
219
100
AcDbEntity
  8
1
  6
ByBlock
 62
     3
100
AcDbLeader
  3
DIMSTYEX_8
 76
     2
 10
0.0
 20
0.0
 30
0.0
 10
-30.21003607284777
 20
-20.50690317495746
 30
0.0
1001
ACAD
1000
DSTYLE
1002
{
1070
   176
1070
     0
1002
}
  0
ENDBLK
  5
21B
330
219
100
AcDbEntity
  8
0
100
AcDbBlockEnd
  0
BLOCK
  5
222
330
221
100
AcDbEntity
  8
0
100
AcDbBlockBegin
  2
BALN4
 70
     0
 10
0.0
 20
0.0
 30
0.0
  3
BALN4
  1

  0
CIRCLE
  5
224
330
221
100
AcDbEntity
  8
1
  6
ByBlock
 62
     3
100
AcDbCircle
 10
-22.02424137288114
 20
-11.59807621280697
 30
0.0
 40
8.0
  0
MTEXT
  5
225
330
221
100
AcDbEntity
  8
1
  6
Continuous
 62
     2
100
AcDbMText
 10
-24.02424137288114
 20
-15.59807621280697
 30
0.0
 40
8.0
 41
0.0
 71
     7
 72
     5
  1
{\fＭＳ ゴシック|b0|i0|c128|p49;\W1.0;1}
  7
MTSTANDARD
 73
     1
 44
0.9375
  0
LEADER
  5
227
330
221
100
AcDbEntity
  8
1
  6
ByBlock
 62
     3
100
AcDbLeader
  3
DIMSTYEX_9
 76
     2
 10
0.0
 20
0.0
 30
0.0
 10
-14.94573959179822
 20
-7.87050159447859
 30
0.0
1001
ACAD
1000
DSTYLE
1002
{
1070
   176
1070
     0
1002
}
  0
ENDBLK
  5
223
330
221
100
AcDbEntity
  8
0
100
AcDbBlockEnd
  0
BLOCK
  5
22A
330
229
100
AcDbEntity
  8
0
100
AcDbBlockBegin
  2
BALN5
 70
     0
 10
0.0
 20
0.0
 30
0.0
  3
BALN5
  1

  0
CIRCLE
  5
22C
330
229
100
AcDbEntity
  8
1
  6
ByBlock
 62
     3
100
AcDbCircle
 10
-37.20669764263096
 20
56.13423212518092
 30
0.0
 40
8.0
  0
MTEXT
  5
22D
330
229
100
AcDbEntity
  8
1
  6
Continuous
 62
     2
100
AcDbMText
 10
-39.20669764263096
 20
52.13423212518092
 30
0.0
 40
8.0
 41
0.0
 71
     7
 72
     5
  1
{\fＭＳ ゴシック|b0|i0|c128|p49;\W1.0;4}
  7
MTSTANDARD
 73
     1
 44
0.9375
  0
LEADER
  5
22F
330
229
100
AcDbEntity
  8
1
  6
ByBlock
 62
     3
100
AcDbLeader
  3
DIMSTYEX_10
 76
     2
 10
0.0
 20
0.0
 30
0.0
 10
-32.78688585913177
 20
49.46600418978145
 30
0.0
1001
ACAD
1000
DSTYLE
1002
{
1070
   176
1070
     0
1002
}
  0
ENDBLK
  5
22B
330
229
100
AcDbEntity
  8
0
100
AcDbBlockEnd
  0
BLOCK
  5
232
330
231
100
AcDbEntity
  8
0
100
AcDbBlockBegin
  2
BALN6
 70
     0
 10
0.0
 20
0.0
 30
0.0
  3
BALN6
  1

  0
CIRCLE
  5
234
330
231
100
AcDbEntity
  8
1
  6
ByBlock
 62
     3
100
AcDbCircle
 10
-17.35944650302451
 20
73.83563736493034
 30
0.0
 40
8.0
  0
MTEXT
  5
235
330
231
100
AcDbEntity
  8
1
  6
Continuous
 62
     2
100
AcDbMText
 10
-19.35944650302451
 20
69.83563736493034
 30
0.0
 40
8.0
 41
0.0
 71
     7
 72
     5
  1
{\fＭＳ ゴシック|b0|i0|c128|p49;\W1.0;2}
  7
MTSTANDARD
 73
     1
 44
0.9375
  0
LEADER
  5
237
330
231
100
AcDbEntity
  8
1
  6
ByBlock
 62
     3
100
AcDbLeader
  3
DIMSTYEX_11
 76
     2
 10
0.0
 20
0.0
 30
0.0
 10
-15.52849550524918
 20
66.04797928025909
 30
0.0
1001
ACAD
1000
DSTYLE
1002
{
1070
   176
1070
     0
1002
}
  0
ENDBLK
  5
233
330
231
100
AcDbEntity
  8
0
100
AcDbBlockEnd
  0
BLOCK
  5
23A
330
239
100
AcDbEntity
  8
0
100
AcDbBlockBegin
  2
BALN7
 70
     0
 10
0.0
 20
0.0
 30
0.0
  3
BALN7
  1

  0
CIRCLE
  5
23C
330
239
100
AcDbEntity
  8
1
  6
ByBlock
 62
     3
100
AcDbCircle
 10
2.266044048436811
 20
78.2462345563431
 30
0.0
 40
8.0
  0
MTEXT
  5
23D
330
239
100
AcDbEntity
  8
1
  6
Continuous
 62
     2
100
AcDbMText
 10
0.266044048436811
 20
74.2462345563431
 30
0.0
 40
8.0
 41
0.0
 71
     7
 72
     5
  1
{\fＭＳ ゴシック|b0|i0|c128|p49;\W1.0;5}
  7
MTSTANDARD
 73
     1
 44
0.9375
  0
LEADER
  5
23F
330
239
100
AcDbEntity
  8
1
  6
ByBlock
 62
     3
100
AcDbLeader
  3
DIMSTYEX_12
 76
     2
 10
0.0
 20
0.0
 30
0.0
 10
2.034457760750971
 20
70.24958727192721
 30
0.0
1001
ACAD
1000
DSTYLE
1002
{
1070
   176
1070
     0
1002
}
  0
ENDBLK
  5
23B
330
239
100
AcDbEntity
  8
0
100
AcDbBlockEnd
  0
BLOCK
  5
242
330
241
100
AcDbEntity
  8
0
100
AcDbBlockBegin
  2
BALN8
 70
     0
 10
0.0
 20
0.0
 30
0.0
  3
BALN8
  1

  0
CIRCLE
  5
244
330
241
100
AcDbEntity
  8
1
  6
ByBlock
 62
     3
100
AcDbCircle
 10
4.021961714529596
 20
72.87887838597135
 30
0.0
 40
8.0
  0
MTEXT
  5
245
330
241
100
AcDbEntity
  8
1
  6
Continuous
 62
     2
100
AcDbMText
 10
2.021961714529596
 20
68.87887838597135
 30
0.0
 40
8.0
 41
0.0
 71
     7
 72
     5
  1
{\fＭＳ ゴシック|b0|i0|c128|p49;\W1.0;3}
  7
MTSTANDARD
 73
     1
 44
0.9375
  0
LEADER
  5
247
330
241
100
AcDbEntity
  8
1
  6
ByBlock
 62
     3
100
AcDbLeader
  3
DIMSTYEX_13
 76
     2
 10
0.0
 20
0.0
 30
0.0
 10
3.581137034488667
 20
64.89103301932417
 30
0.0
1001
ACAD
1000
DSTYLE
1002
{
1070
   176
1070
     0
1002
}
  0
ENDBLK
  5
243
330
241
100
AcDbEntity
  8
0
100
AcDbBlockEnd
  0
BLOCK
  5
24A
330
249
100
AcDbEntity
  8
0
100
AcDbBlockBegin
  2
_D3
 70
     0
 10
0.0
 20
0.0
 30
0.0
  3
_D3
  1

  0
LINE
  5
24C
330
249
100
AcDbEntity
  8
1
  6
ByBlock
 62
     3
100
AcDbLine
 10
-426.9106053654551
 20
-1462.958855655071
 30
0.0
 11
-426.9106053654551
 21
-1436.735390261254
 31
0.0
  0
LINE
  5
24D
330
249
100
AcDbEntity
  8
1
  6
ByBlock
 62
     3
100
AcDbLine
 10
-426.9106053654551
 20
-1438.735390261254
 30
0.0
 11
-345.9106053654476
 21
-1438.735390261253
 31
0.0
  0
INSERT
  5
24E
330
249
100
AcDbEntity
  8
1
  6
ByBlock
 62
     3
100
AcDbBlockReference
  2
_OPEN30
 10
-426.9106053654551
 20
-1438.735390261254
 30
0.0
 41
3.939231012048822
 42
3.939231012048822
 43
3.939231012048822
 50
180.0
  0
MTEXT
  5
24F
330
249
100
AcDbEntity
  8
1
  6
Continuous
 62
     2
100
AcDbMText
 10
-379.9106053654476
 20
-1438.735390261254
 30
0.0
 40
8.0
 41
0.0
 71
     7
 72
     5
  1
φ１２１
  7
MTSTANDARD6
 73
     1
 44
0.9375
  0
POINT
  5
250
330
249
100
AcDbEntity
  8
DEFPOINTS
  6
ByBlock
 62
     3
100
AcDbPoint
 10
-426.9106053654551
 20
-1438.735390261254
 30
0.0
  0
POINT
  5
251
330
249
100
AcDbEntity
  8
DEFPOINTS
  6
ByBlock
 62
     3
100
AcDbPoint
 10
-426.9106053654551
 20
-1464.958855655071
 30
0.0
  0
POINT
  5
252
330
249
100
AcDbEntity
  8
DEFPOINTS
  6
ByBlock
 62
     3
100
AcDbPoint
 10
-305.9106053654401
 20
-1464.958855654981
 30
0.0
  0
ENDBLK
  5
24B
330
249
100
AcDbEntity
  8
0
100
AcDbBlockEnd
  0
BLOCK
  5
25B
330
25A
100
AcDbEntity
  8
0
100
AcDbBlockBegin
  2
_D4
 70
     0
 10
0.0
 20
0.0
 30
0.0
  3
_D4
  1

  0
LINE
  5
25D
330
25A
100
AcDbEntity
  8
1
  6
ByBlock
 62
     3
100
AcDbLine
 10
-462.4106053654479
 20
-1464.958855655069
 30
0.0
 11
-497.2839474499739
 21
-1464.958855655069
 31
0.0
  0
LINE
  5
25E
330
25A
100
AcDbEntity
  8
1
  6
ByBlock
 62
     3
100
AcDbLine
 10
-495.2839474499739
 20
-1464.958855655069
 30
0.0
 11
-495.2839474499739
 21
-1518.958855655068
 31
0.0
  0
LINE
  5
25F
330
25A
100
AcDbEntity
  8
1
  6
ByBlock
 62
     3
100
AcDbLine
 10
-432.5210308405512
 20
-1518.958855655068
 30
0.0
 11
-497.2839474499739
 21
-1518.958855655068
 31
0.0
  0
INSERT
  5
260
330
25A
100
AcDbEntity
  8
1
  6
ByBlock
 62
     3
100
AcDbBlockReference
  2
_OPEN30
 10
-495.2839474499739
 20
-1464.958855655069
 30
0.0
 41
3.939231012048822
 42
3.939231012048822
 43
3.939231012048822
 50
90.0
  0
INSERT
  5
261
330
25A
100
AcDbEntity
  8
1
  6
ByBlock
 62
     3
100
AcDbBlockReference
  2
_OPEN30
 10
-495.2839474499739
 20
-1518.958855655068
 30
0.0
 41
3.939231012048822
 42
3.939231012048822
 43
3.939231012048822
 50
270.0
  0
MTEXT
  5
262
330
25A
100
AcDbEntity
  8
1
  6
Continuous
 62
     2
100
AcDbMText
 10
-495.2839474499739
 20
-1498.458855655069
 30
0.0
 40
8.0
 41
0.0
 71
     7
 72
     5
  1
５４
  7
MTSTANDARD6
 11
0.0
 21
1.0
 31
0.0
 73
     1
 44
0.9375
  0
POINT
  5
263
330
25A
100
AcDbEntity
  8
DEFPOINTS
  6
ByBlock
 62
     3
100
AcDbPoint
 10
-460.4106053654479
 20
-1464.958855655069
 30
0.0
  0
POINT
  5
264
330
25A
100
AcDbEntity
  8
DEFPOINTS
  6
ByBlock
 62
     3
100
AcDbPoint
 10
-430.5210308405511
 20
-1518.958855655068
 30
0.0
  0
POINT
  5
265
330
25A
100
AcDbEntity
  8
DEFPOINTS
  6
ByBlock
 62
     3
100
AcDbPoint
 10
-495.2839474499739
 20
-1518.958855655068
 30
0.0
  0
ENDBLK
  5
25C
330
25A
100
AcDbEntity
  8
0
100
AcDbBlockEnd
  0
BLOCK
  5
276
330
275
100
AcDbEntity
  8
0
100
AcDbBlockBegin
  2
_D5
 70
     0
 10
0.0
 20
0.0
 30
0.0
  3
_D5
  1

  0
LINE
  5
278
330
275
100
AcDbEntity
  8
1
  6
ByBlock
 62
     3
100
AcDbLine
 10
-485.9106053654517
 20
-1532.958855655069
 30
0.0
 11
-511.7854526333728
 21
-1532.958855655069
 31
0.0
  0
LINE
  5
279
330
275
100
AcDbEntity
  8
1
  6
ByBlock
 62
     3
100
AcDbLine
 10
-509.7854526333728
 20
-1532.958855655069
 30
0.0
 11
-509.7854526333728
 21
-1464.958855655026
 31
0.0
  0
LINE
  5
27A
330
275
100
AcDbEntity
  8
1
  6
ByBlock
 62
     3
100
AcDbLine
 10
-462.4106053654549
 20
-1464.958855655026
 30
0.0
 11
-511.7854526333729
 21
-1464.958855655026
 31
0.0
  0
INSERT
  5
27B
330
275
100
AcDbEntity
  8
1
  6
ByBlock
 62
     3
100
AcDbBlockReference
  2
_OPEN30
 10
-509.7854526333728
 20
-1532.958855655069
 30
0.0
 41
3.939231012048822
 42
3.939231012048822
 43
3.939231012048822
 50
270.0
  0
INSERT
  5
27C
330
275
100
AcDbEntity
  8
1
  6
ByBlock
 62
     3
100
AcDbBlockReference
  2
_OPEN30
 10
-509.7854526333728
 20
-1464.958855655026
 30
0.0
 41
3.939231012048822
 42
3.939231012048822
 43
3.939231012048822
 50
90.0
  0
MTEXT
  5
27D
330
275
100
AcDbEntity
  8
1
  6
Continuous
 62
     2
100
AcDbMText
 10
-511.7854526333729
 20
-1540.458855655048
 30
0.0
 40
8.0
 41
0.0
 71
     7
 72
     5
  1
ＹＤＧ　Ｌ＝８２ｍｍの時\P（７０～１０２）
  7
MTSTANDARD6
 11
0.0
 21
1.0
 31
0.0
 73
     1
 44
0.9375
  0
POINT
  5
27E
330
275
100
AcDbEntity
  8
DEFPOINTS
  6
ByBlock
 62
     3
100
AcDbPoint
 10
-483.9106053654517
 20
-1532.958855655069
 30
0.0
  0
POINT
  5
27F
330
275
100
AcDbEntity
  8
DEFPOINTS
  6
ByBlock
 62
     3
100
AcDbPoint
 10
-460.4106053654549
 20
-1464.958855655026
 30
0.0
  0
POINT
  5
280
330
275
100
AcDbEntity
  8
DEFPOINTS
  6
ByBlock
 62
     3
100
AcDbPoint
 10
-509.7854526333728
 20
-1464.958855655026
 30
0.0
  0
ENDBLK
  5
277
330
275
100
AcDbEntity
  8
0
100
AcDbBlockEnd
  0
BLOCK
  5
2FB
330
2FA
100
AcDbEntity
  8
0
100
AcDbBlockBegin
  2
_D6
 70
     0
 10
0.0
 20
0.0
 30
0.0
  3
_D6
  1

  0
LINE
  5
2FD
330
2FA
100
AcDbEntity
  8
1
  6
ByBlock
 62
     3
100
AcDbLine
 10
-396.2176053654472
 20
-1642.958855655071
 30
0.0
 11
-396.2176053654472
 21
-1660.897107077767
 31
0.0
  0
LINE
  5
2FE
330
2FA
100
AcDbEntity
  8
1
  6
ByBlock
 62
     3
100
AcDbLine
 10
-396.2176053654473
 20
-1658.897107077767
 30
0.0
 11
-336.6036053654477
 21
-1658.897107077767
 31
0.0
  0
LINE
  5
2FF
330
2FA
100
AcDbEntity
  8
1
  6
ByBlock
 62
     3
100
AcDbLine
 10
-336.6036053654477
 20
-1642.958855655071
 30
0.0
 11
-336.6036053654477
 21
-1660.897107077767
 31
0.0
  0
INSERT
  5
300
330
2FA
100
AcDbEntity
  8
1
  6
ByBlock
 62
     3
100
AcDbBlockReference
  2
_OPEN30
 10
-396.2176053654473
 20
-1658.897107077767
 30
0.0
 41
3.939231012048822
 42
3.939231012048822
 43
3.939231012048822
 50
180.0
  0
INSERT
  5
301
330
2FA
100
AcDbEntity
  8
1
  6
ByBlock
 62
     3
100
AcDbBlockReference
  2
_OPEN30
 10
-336.6036053654477
 20
-1658.897107077767
 30
0.0
 41
3.939231012048822
 42
3.939231012048822
 43
3.939231012048822
  0
MTEXT
  5
302
330
2FA
100
AcDbEntity
  8
1
  6
Continuous
 62
     2
100
AcDbMText
 10
-376.4106053654475
 20
-1658.897107077767
 30
0.0
 40
8.0
 41
0.0
 71
     7
 72
     5
  1
Ｒｃ２
  7
MTSTANDARD6
 73
     1
 44
0.9375
  0
POINT
  5
303
330
2FA
100
AcDbEntity
  8
DEFPOINTS
  6
ByBlock
 62
     3
100
AcDbPoint
 10
-396.2176053654473
 20
-1640.958855655071
 30
0.0
  0
POINT
  5
304
330
2FA
100
AcDbEntity
  8
DEFPOINTS
  6
ByBlock
 62
     3
100
AcDbPoint
 10
-336.6036053654477
 20
-1640.958855655071
 30
0.0
  0
POINT
  5
305
330
2FA
100
AcDbEntity
  8
DEFPOINTS
  6
ByBlock
 62
     3
100
AcDbPoint
 10
-336.6036053654477
 20
-1658.897107077767
 30
0.0
  0
ENDBLK
  5
2FC
330
2FA
100
AcDbEntity
  8
0
100
AcDbBlockEnd
  0
BLOCK
  5
309
330
308
100
AcDbEntity
  8
0
100
AcDbBlockBegin
  2
_D7
 70
     0
 10
0.0
 20
0.0
 30
0.0
  3
_D7
  1

  0
LINE
  5
30B
330
308
100
AcDbEntity
  8
1
  6
ByBlock
 62
     3
100
AcDbLine
 10
-398.6566438400349
 20
-1606.458855655071
 30
0.0
 11
-374.8163804467856
 21
-1606.458855655071
 31
0.0
  0
LINE
  5
30C
330
308
100
AcDbEntity
  8
1
  6
ByBlock
 62
     3
100
AcDbLine
 10
-376.8163804467856
 20
-1606.458855655071
 30
0.0
 11
-376.8163804467856
 21
-1556.458855655071
 31
0.0
  0
LINE
  5
30D
330
308
100
AcDbEntity
  8
1
  6
ByBlock
 62
     3
100
AcDbLine
 10
-388.550872140125
 20
-1556.458855655071
 30
0.0
 11
-374.8163804467856
 21
-1556.458855655071
 31
0.0
  0
INSERT
  5
30E
330
308
100
AcDbEntity
  8
1
  6
ByBlock
 62
     3
100
AcDbBlockReference
  2
_OPEN30
 10
-376.8163804467856
 20
-1606.458855655071
 30
0.0
 41
3.939231012048822
 42
3.939231012048822
 43
3.939231012048822
 50
270.0
  0
INSERT
  5
30F
330
308
100
AcDbEntity
  8
1
  6
ByBlock
 62
     3
100
AcDbBlockReference
  2
_OPEN30
 10
-376.8163804467856
 20
-1556.458855655071
 30
0.0
 41
3.939231012048822
 42
3.939231012048822
 43
3.939231012048822
 50
90.0
  0
MTEXT
  5
310
330
308
100
AcDbEntity
  8
1
  6
Continuous
 62
     2
100
AcDbMText
 10
-376.8163804467856
 20
-1587.958855655071
 30
0.0
 40
8.0
 41
0.0
 71
     7
 72
     5
  1
５０
  7
MTSTANDARD6
 11
0.0
 21
1.0
 31
0.0
 73
     1
 44
0.9375
  0
POINT
  5
311
330
308
100
AcDbEntity
  8
DEFPOINTS
  6
ByBlock
 62
     3
100
AcDbPoint
 10
-400.6566438400348
 20
-1606.458855655071
 30
0.0
  0
POINT
  5
312
330
308
100
AcDbEntity
  8
DEFPOINTS
  6
ByBlock
 62
     3
100
AcDbPoint
 10
-390.550872140125
 20
-1556.458855655071
 30
0.0
  0
POINT
  5
313
330
308
100
AcDbEntity
  8
DEFPOINTS
  6
ByBlock
 62
     3
100
AcDbPoint
 10
-376.8163804467856
 20
-1556.458855655071
 30
0.0
  0
ENDBLK
  5
30A
330
308
100
AcDbEntity
  8
0
100
AcDbBlockEnd
  0
BLOCK
  5
329
330
328
100
AcDbEntity
  8
0
100
AcDbBlockBegin
  2
_D8
 70
     0
 10
0.0
 20
0.0
 30
0.0
  3
_D8
  1

  0
LINE
  5
32B
330
328
100
AcDbEntity
  8
1
  6
ByBlock
 62
     3
100
AcDbLine
 10
-433.6667334352811
 20
-1545.958855655106
 30
0.0
 11
-433.666733435281
 21
-1675.28854174508
 31
0.0
  0
LINE
  5
32C
330
328
100
AcDbEntity
  8
1
  6
ByBlock
 62
     3
100
AcDbLine
 10
-433.666733435281
 20
-1673.28854174508
 30
0.0
 11
-299.1544772956129
 21
-1673.28854174508
 31
0.0
  0
LINE
  5
32D
330
328
100
AcDbEntity
  8
1
  6
ByBlock
 62
     3
100
AcDbLine
 10
-299.1544772956129
 20
-1545.95885565507
 30
0.0
 11
-299.1544772956129
 21
-1675.28854174508
 31
0.0
  0
INSERT
  5
32E
330
328
100
AcDbEntity
  8
1
  6
ByBlock
 62
     3
100
AcDbBlockReference
  2
_OPEN30
 10
-433.666733435281
 20
-1673.28854174508
 30
0.0
 41
3.939231012048822
 42
3.939231012048822
 43
3.939231012048822
 50
180.0
  0
INSERT
  5
32F
330
328
100
AcDbEntity
  8
1
  6
ByBlock
 62
     3
100
AcDbBlockReference
  2
_OPEN30
 10
-299.1544772956129
 20
-1673.28854174508
 30
0.0
 41
3.939231012048822
 42
3.939231012048822
 43
3.939231012048822
  0
MTEXT
  5
330
330
328
100
AcDbEntity
  8
1
  6
Continuous
 62
     2
100
AcDbMText
 10
-379.9106053654469
 20
-1673.28854174508
 30
0.0
 40
8.0
 41
0.0
 71
     7
 72
     5
  1
φ１３５
  7
MTSTANDARD6
 73
     1
 44
0.9375
  0
POINT
  5
331
330
328
100
AcDbEntity
  8
DEFPOINTS
  6
ByBlock
 62
     3
100
AcDbPoint
 10
-433.666733435281
 20
-1543.958855655107
 30
0.0
  0
POINT
  5
332
330
328
100
AcDbEntity
  8
DEFPOINTS
  6
ByBlock
 62
     3
100
AcDbPoint
 10
-299.1544772956129
 20
-1543.95885565507
 30
0.0
  0
POINT
  5
333
330
328
100
AcDbEntity
  8
DEFPOINTS
  6
ByBlock
 62
     3
100
AcDbPoint
 10
-299.1544772956129
 20
-1673.28854174508
 30
0.0
  0
ENDBLK
  5
32A
330
328
100
AcDbEntity
  8
0
100
AcDbBlockEnd
  0
BLOCK
  5
337
330
336
100
AcDbEntity
  8
0
100
AcDbBlockBegin
  2
_D9
 70
     0
 10
0.0
 20
0.0
 30
0.0
  3
_D9
  1

  0
LINE
  5
339
330
336
100
AcDbEntity
  8
1
  6
ByBlock
 62
     3
100
AcDbLine
 10
-407.2465012008055
 20
-1640.958855655071
 30
0.0
 11
-511.7854526333728
 21
-1640.958855655071
 31
0.0
  0
LINE
  5
33A
330
336
100
AcDbEntity
  8
1
  6
ByBlock
 62
     3
100
AcDbLine
 10
-509.7854526333728
 20
-1640.958855655071
 30
0.0
 11
-509.7854526333728
 21
-1532.958855655106
 31
0.0
  0
LINE
  5
33B
330
336
100
AcDbEntity
  8
1
  6
ByBlock
 62
     3
100
AcDbLine
 10
-433.7955940869747
 20
-1532.958855655106
 30
0.0
 11
-511.7854526333728
 21
-1532.958855655106
 31
0.0
  0
INSERT
  5
33C
330
336
100
AcDbEntity
  8
1
  6
ByBlock
 62
     3
100
AcDbBlockReference
  2
_OPEN30
 10
-509.7854526333728
 20
-1640.958855655071
 30
0.0
 41
3.939231012048822
 42
3.939231012048822
 43
3.939231012048822
 50
270.0
  0
INSERT
  5
33D
330
336
100
AcDbEntity
  8
1
  6
ByBlock
 62
     3
100
AcDbBlockReference
  2
_OPEN30
 10
-509.7854526333728
 20
-1532.958855655106
 30
0.0
 41
3.939231012048822
 42
3.939231012048822
 43
3.939231012048822
 50
90.0
  0
MTEXT
  5
33E
330
336
100
AcDbEntity
  8
1
  6
Continuous
 62
     2
100
AcDbMText
 10
-509.7854526333728
 20
-1596.958855655088
 30
0.0
 40
8.0
 41
0.0
 71
     7
 72
     5
  1
１０８
  7
MTSTANDARD6
 11
0.0
 21
1.0
 31
0.0
 73
     1
 44
0.9375
  0
POINT
  5
33F
330
336
100
AcDbEntity
  8
DEFPOINTS
  6
ByBlock
 62
     3
100
AcDbPoint
 10
-405.2465012008055
 20
-1640.958855655071
 30
0.0
  0
POINT
  5
340
330
336
100
AcDbEntity
  8
DEFPOINTS
  6
ByBlock
 62
     3
100
AcDbPoint
 10
-431.7955940869747
 20
-1532.958855655106
 30
0.0
  0
POINT
  5
341
330
336
100
AcDbEntity
  8
DEFPOINTS
  6
ByBlock
 62
     3
100
AcDbPoint
 10
-509.7854526333728
 20
-1532.958855655106
 30
0.0
  0
ENDBLK
  5
338
330
336
100
AcDbEntity
  8
0
100
AcDbBlockEnd
  0
BLOCK
  5
344
330
343
100
AcDbEntity
  8
0
100
AcDbBlockBegin
  2
BLK2
 70
     0
 10
-366.4106053654475
 20
-1556.458855655071
 30
0.0
  3
BLK2
  1

  0
LINE
  5
346
330
343
100
AcDbEntity
  8
1
  6
Continuous
 62
     7
100
AcDbLine
 10
-326.6847492920705
 20
-1561.505302692061
 30
0.0
 11
-326.6046154257982
 21
-1561.536753134061
 31
0.0
  0
LINE
  5
347
330
343
100
AcDbEntity
  8
1
  6
Continuous
 62
     7
100
AcDbLine
 10
-326.6046154257982
 20
-1561.536753134061
 30
0.0
 11
-326.5262304923289
 21
-1561.57140168049
 31
0.0
  0
LINE
  5
348
330
343
100
AcDbEntity
  8
1
  6
Continuous
 62
     7
100
AcDbLine
 10
-326.5262304923289
 20
-1561.57140168049
 30
0.0
 11
-326.4513316945475
 21
-1561.612409856612
 31
0.0
  0
LINE
  5
349
330
343
100
AcDbEntity
  8
1
  6
Continuous
 62
     7
100
AcDbLine
 10
-326.4513316945475
 20
-1561.612409856612
 30
0.0
 11
-326.3810580705102
 21
-1561.661073840401
 31
0.0
  0
LINE
  5
34A
330
343
100
AcDbEntity
  8
1
  6
Continuous
 62
     7
100
AcDbLine
 10
-326.3810580705102
 20
-1561.661073840401
 30
0.0
 11
-326.3156776207305
 21
-1561.715973522546
 31
0.0
  0
LINE
  5
34B
330
343
100
AcDbEntity
  8
1
  6
Continuous
 62
     7
100
AcDbLine
 10
-326.3156776207305
 20
-1561.715973522546
 30
0.0
 11
-326.2554636573713
 21
-1561.775621991186
 31
0.0
  0
LINE
  5
34C
330
343
100
AcDbEntity
  8
1
  6
Continuous
 62
     7
100
AcDbLine
 10
-326.2554636573713
 20
-1561.775621991186
 30
0.0
 11
-326.2010418889457
 21
-1561.839234499425
 31
0.0
  0
LINE
  5
34D
330
343
100
AcDbEntity
  8
1
  6
Continuous
 62
     7
100
AcDbLine
 10
-326.2010418889457
 20
-1561.839234499425
 30
0.0
 11
-326.1531647944142
 21
-1561.906030404854
 31
0.0
  0
LINE
  5
34E
330
343
100
AcDbEntity
  8
1
  6
Continuous
 62
     7
100
AcDbLine
 10
-326.1531647944142
 20
-1561.906030404854
 30
0.0
 11
-326.1127494742485
 21
-1561.973701783473
 31
0.0
  0
LINE
  5
34F
330
343
100
AcDbEntity
  8
1
  6
Continuous
 62
     7
100
AcDbLine
 10
-326.1127494742485
 20
-1561.973701783473
 30
0.0
 11
-326.0808080908445
 21
-1562.038525903983
 31
0.0
  0
LINE
  5
350
330
343
100
AcDbEntity
  8
1
  6
Continuous
 62
     7
100
AcDbLine
 10
-326.0808080908445
 20
-1562.038525903983
 30
0.0
 11
-326.0584081094929
 21
-1562.093444251329
 31
0.0
  0
LINE
  5
351
330
343
100
AcDbEntity
  8
1
  6
Continuous
 62
     7
100
AcDbLine
 10
-326.0584081094929
 20
-1562.093444251329
 30
0.0
 11
-326.0451639676929
 21
-1562.132861187271
 31
0.0
  0
LINE
  5
352
330
343
100
AcDbEntity
  8
1
  6
Continuous
 62
     7
100
AcDbLine
 10
-326.0451639676929
 20
-1562.132861187271
 30
0.0
 11
-326.0392028207601
 21
-1562.153715823113
 31
0.0
  0
LINE
  5
353
330
343
100
AcDbEntity
  8
1
  6
Continuous
 62
     7
100
AcDbLine
 10
-326.0392028207601
 20
-1562.153715823113
 30
0.0
 11
-326.0385210323406
 21
-1562.156274568108
 31
0.0
  0
ARC
  5
354
330
343
100
AcDbEntity
  8
1
  6
Continuous
 62
     7
100
AcDbCircle
 10
-374.8743416250476
 20
-1543.958855655071
 30
0.0
 40
1.000000000000002
100
AcDbArc
 50
90.0
 51
172.4947745055995
  0
LINE
  5
355
330
343
100
AcDbEntity
  8
1
  6
Continuous
 62
     7
100
AcDbLine
 10
-377.4120456492477
 20
-1555.589208657871
 30
0.0
 11
-375.8658092718478
 21
-1543.828502652371
 31
0.0
  0
ARC
  5
356
330
343
100
AcDbEntity
  8
1
  6
Continuous
 62
     7
100
AcDbCircle
 10
-378.4035132960474
 20
-1555.458855655071
 30
0.0
 40
1.000000000000004
100
AcDbArc
 50
270.0
 51
352.5100085351011
  0
LINE
  5
357
330
343
100
AcDbEntity
  8
1
  6
Continuous
 62
     7
100
AcDbLine
 10
-319.4106053654476
 20
-1606.458855655071
 30
0.0
 11
-324.4130435426476
 21
-1606.458855655071
 31
0.0
  0
LINE
  5
358
330
343
100
AcDbEntity
  8
1
  6
Continuous
 62
     7
100
AcDbLine
 10
-324.4130435426476
 20
-1606.458855655071
 30
0.0
 11
-325.9507761175477
 21
-1562.423956158371
 31
0.0
  0
ARC
  5
359
330
343
100
AcDbEntity
  8
1
  6
Continuous
 62
     7
100
AcDbCircle
 10
-326.9501669446475
 20
-1562.458855655071
 30
0.0
 40
1.000000000000028
100
AcDbArc
 50
2.000000000003953
 51
90.0
  0
LINE
  5
35A
330
343
100
AcDbEntity
  8
1
  6
Continuous
 62
     7
100
AcDbLine
 10
-326.9501669446475
 20
-1561.458855655071
 30
0.0
 11
-331.7703127431477
 21
-1561.458855655071
 31
0.0
  0
ARC
  5
35B
330
343
100
AcDbEntity
  8
1
  6
Continuous
 62
     7
100
AcDbCircle
 10
-331.7703127431477
 20
-1560.458855655071
 30
0.0
 40
1.000000000000003
100
AcDbArc
 50
181.999999999991
 51
270.0
  0
LINE
  5
35C
330
343
100
AcDbEntity
  8
1
  6
Continuous
 62
     7
100
AcDbLine
 10
-332.7697035702475
 20
-1560.493755151771
 30
0.0
 11
-332.8769033132475
 21
-1557.423956158371
 31
0.0
  0
ARC
  5
35D
330
343
100
AcDbEntity
  8
1
  6
Continuous
 62
     7
100
AcDbCircle
 10
-333.8762941402478
 20
-1557.458855655071
 30
0.0
 40
1.0
100
AcDbArc
 50
2.000000000003044
 51
90.0
  0
LINE
  5
35E
330
343
100
AcDbEntity
  8
1
  6
Continuous
 62
     7
100
AcDbLine
 10
-333.8762941402478
 20
-1556.458855655071
 30
0.0
 11
-338.4734862025479
 21
-1556.458855655071
 31
0.0
  0
ARC
  5
35F
330
343
100
AcDbEntity
  8
1
  6
Continuous
 62
     7
100
AcDbCircle
 10
-338.4734862025479
 20
-1555.458855655071
 30
0.0
 40
1.000000000000004
100
AcDbArc
 50
181.999999999991
 51
270.0
  0
LINE
  5
360
330
343
100
AcDbEntity
  8
1
  6
Continuous
 62
     7
100
AcDbLine
 10
-339.4728770295477
 20
-1555.493755151771
 30
0.0
 11
-339.8769033132475
 21
-1543.923956158371
 31
0.0
  0
ARC
  5
361
330
343
100
AcDbEntity
  8
1
  6
Continuous
 62
     7
100
AcDbCircle
 10
-340.8762941402478
 20
-1543.958855655071
 30
0.0
 40
1.000000000000003
100
AcDbArc
 50
2.000000000003044
 51
90.0
  0
LINE
  5
362
330
343
100
AcDbEntity
  8
1
  6
HIDDEN
 62
     1
100
AcDbLine
 10
-331.458956279448
 20
-1542.958855655071
 30
0.0
 11
-340.8762941402478
 21
-1542.958855655071
 31
0.0
  0
LINE
  5
363
330
343
100
AcDbEntity
  8
1
  6
Continuous
 62
     7
100
AcDbLine
 10
-340.8762941402478
 20
-1542.958855655071
 30
0.0
 11
-401.3622544514477
 21
-1542.958855655071
 31
0.0
  0
ARC
  5
364
330
343
100
AcDbEntity
  8
1
  6
Continuous
 62
     7
100
AcDbCircle
 10
-401.3622544514477
 20
-1547.958855655071
 30
0.0
 40
5.000000000000002
100
AcDbArc
 50
90.0
 51
177.999999999999
  0
LINE
  5
365
330
343
100
AcDbEntity
  8
1
  6
Continuous
 62
     7
100
AcDbLine
 10
-406.3592085865474
 20
-1547.784358171571
 30
0.0
 11
-408.4081671882476
 21
-1606.458855655071
 31
0.0
  0
LINE
  5
366
330
343
100
AcDbEntity
  8
1
  6
Continuous
 62
     7
100
AcDbLine
 10
-408.4081671882476
 20
-1606.458855655071
 30
0.0
 11
-413.4106053654476
 21
-1606.458855655071
 31
0.0
  0
LINE
  5
367
330
343
100
AcDbEntity
  8
1
  6
Continuous
 62
     7
100
AcDbLine
 10
-413.4106053654476
 20
-1606.458855655071
 30
0.0
 11
-411.3218511251474
 21
-1546.644760184771
 31
0.0
  0
ARC
  5
368
330
343
100
AcDbEntity
  8
1
  6
Continuous
 62
     7
100
AcDbCircle
 10
-402.3273336819478
 20
-1546.958855655071
 30
0.0
 40
9.0
100
AcDbArc
 50
90.0
 51
177.9999999999993
  0
LINE
  5
369
330
343
100
AcDbEntity
  8
1
  6
Continuous
 62
     7
100
AcDbLine
 10
-402.3273336819478
 20
-1537.958855655071
 30
0.0
 11
-380.8423451764478
 21
-1537.958855655071
 31
0.0
  0
ARC
  5
36A
330
343
100
AcDbEntity
  8
1
  6
Continuous
 62
     7
100
AcDbCircle
 10
-380.8423451764478
 20
-1534.958855655071
 30
0.0
 40
3.0
100
AcDbArc
 50
270.0
 51
335.5560452196047
  0
LINE
  5
36B
330
343
100
AcDbEntity
  8
1
  6
Continuous
 62
     7
100
AcDbLine
 10
-378.1112457440476
 20
-1536.200264487971
 30
0.0
 11
-374.7099649868477
 21
-1528.717446822171
 31
0.0
  0
ARC
  5
36C
330
343
100
AcDbEntity
  8
1
  6
Continuous
 62
     7
100
AcDbCircle
 10
-371.9788655544475
 20
-1529.958855655071
 30
0.0
 40
3.0
100
AcDbArc
 50
90.0
 51
155.5560452196007
  0
LINE
  5
36D
330
343
100
AcDbEntity
  8
1
  6
Continuous
 62
     7
100
AcDbLine
 10
-371.9788655544475
 20
-1526.958855655071
 30
0.0
 11
-360.8423451764478
 21
-1526.958855655071
 31
0.0
  0
ARC
  5
36E
330
343
100
AcDbEntity
  8
1
  6
Continuous
 62
     7
100
AcDbCircle
 10
-360.8423451764478
 20
-1529.958855655071
 30
0.0
 40
3.0
100
AcDbArc
 50
24.44395478039929
 51
90.0
  0
LINE
  5
36F
330
343
100
AcDbEntity
  8
1
  6
Continuous
 62
     7
100
AcDbLine
 10
-358.1112457440476
 20
-1528.717446822171
 30
0.0
 11
-354.7099649868477
 21
-1536.200264487971
 31
0.0
  0
ARC
  5
370
330
343
100
AcDbEntity
  8
1
  6
Continuous
 62
     7
100
AcDbCircle
 10
-351.9788655544475
 20
-1534.958855655071
 30
0.0
 40
3.000000000000004
100
AcDbArc
 50
204.4439547803953
 51
270.0
  0
LINE
  5
371
330
343
100
AcDbEntity
  8
1
  6
Continuous
 62
     7
100
AcDbLine
 10
-351.9788655544475
 20
-1537.958855655071
 30
0.0
 11
-330.4938770489479
 21
-1537.958855655071
 31
0.0
  0
ARC
  5
372
330
343
100
AcDbEntity
  8
1
  6
Continuous
 62
     7
100
AcDbCircle
 10
-330.4938770489479
 20
-1546.958855655071
 30
0.0
 40
9.0
100
AcDbArc
 50
2.000000000000655
 51
90.0
  0
LINE
  5
373
330
343
100
AcDbEntity
  8
1
  6
Continuous
 62
     7
100
AcDbLine
 10
-321.4993596057478
 20
-1546.644760184771
 30
0.0
 11
-319.4106053654476
 21
-1606.458855655071
 31
0.0
  0
LINE
  5
374
330
343
100
AcDbEntity
  8
1
  6
Continuous
 62
     7
100
AcDbLine
 10
-390.1192442336297
 20
-1556.45885565507
 30
0.0
 11
-390.2393284396234
 21
-1555.155646095882
 31
0.0
  0
LINE
  5
375
330
343
100
AcDbEntity
  8
1
  6
Continuous
 62
     7
100
AcDbLine
 10
-390.2393284396234
 20
-1555.155646095882
 30
0.0
 11
-390.4083330710627
 21
-1553.312692605793
 31
0.0
  0
LINE
  5
376
330
343
100
AcDbEntity
  8
1
  6
Continuous
 62
     7
100
AcDbLine
 10
-390.4083330710627
 20
-1553.312692605793
 30
0.0
 11
-390.5765096085287
 21
-1551.469825642695
 31
0.0
  0
LINE
  5
377
330
343
100
AcDbEntity
  8
1
  6
Continuous
 62
     7
100
AcDbLine
 10
-390.5765096085287
 20
-1551.469825642695
 30
0.0
 11
-390.7438520357044
 21
-1549.627046925115
 31
0.0
  0
LINE
  5
378
330
343
100
AcDbEntity
  8
1
  6
Continuous
 62
     7
100
AcDbLine
 10
-390.7438520357044
 20
-1549.627046925115
 30
0.0
 11
-390.910354336272
 21
-1547.784358171579
 31
0.0
  0
LINE
  5
379
330
343
100
AcDbEntity
  8
1
  6
Continuous
 62
     7
100
AcDbLine
 10
-325.9507761175477
 20
-1562.423956158371
 30
0.0
 11
-325.9850137453476
 21
-1562.423956158371
 31
0.0
  0
LINE
  5
37A
330
343
100
AcDbEntity
  8
1
  6
Continuous
 62
     7
100
AcDbLine
 10
-324.4130435426476
 20
-1606.458855655071
 30
0.0
 11
-332.1645668908601
 21
-1606.458855655071
 31
0.0
  0
LINE
  5
37B
330
343
100
AcDbEntity
  8
1
  6
Continuous
 62
     7
100
AcDbLine
 10
-400.6566438400349
 20
-1606.458855655071
 30
0.0
 11
-408.4081671882476
 21
-1606.458855655071
 31
0.0
  0
LINE
  5
37C
330
343
100
AcDbEntity
  8
1
  6
Continuous
 62
     7
100
AcDbLine
 10
-390.910354336272
 20
-1547.784358171579
 30
0.0
 11
-390.9281727011679
 21
-1547.416735217912
 31
0.0
  0
LINE
  5
37D
330
343
100
AcDbEntity
  8
1
  6
Continuous
 62
     7
100
AcDbLine
 10
-390.9281727011679
 20
-1547.416735217912
 30
0.0
 11
-390.9315295394025
 21
-1547.054959345734
 31
0.0
  0
LINE
  5
37E
330
343
100
AcDbEntity
  8
1
  6
Continuous
 62
     7
100
AcDbLine
 10
-390.9315295394025
 20
-1547.054959345734
 30
0.0
 11
-390.9206479969142
 21
-1546.698774835945
 31
0.0
  0
LINE
  5
37F
330
343
100
AcDbEntity
  8
1
  6
Continuous
 62
     7
100
AcDbLine
 10
-390.9206479969142
 20
-1546.698774835945
 30
0.0
 11
-390.8954477515807
 21
-1546.347704979437
 31
0.0
  0
LINE
  5
380
330
343
100
AcDbEntity
  8
1
  6
Continuous
 62
     7
100
AcDbLine
 10
-390.8954477515807
 20
-1546.347704979437
 30
0.0
 11
-390.8560527858853
 21
-1546.004651053983
 31
0.0
  0
LINE
  5
381
330
343
100
AcDbEntity
  8
1
  6
Continuous
 62
     7
100
AcDbLine
 10
-390.8560527858853
 20
-1546.004651053983
 30
0.0
 11
-390.8028298558023
 21
-1545.673363655169
 31
0.0
  0
LINE
  5
382
330
343
100
AcDbEntity
  8
1
  6
Continuous
 62
     7
100
AcDbLine
 10
-390.8028298558023
 20
-1545.673363655169
 30
0.0
 11
-390.7363168022219
 21
-1545.356028557466
 31
0.0
  0
LINE
  5
383
330
343
100
AcDbEntity
  8
1
  6
Continuous
 62
     7
100
AcDbLine
 10
-390.7363168022219
 20
-1545.356028557466
 30
0.0
 11
-390.6566104832153
 21
-1545.05258471252
 31
0.0
  0
LINE
  5
384
330
343
100
AcDbEntity
  8
1
  6
Continuous
 62
     7
100
AcDbLine
 10
-390.6566104832153
 20
-1545.05258471252
 30
0.0
 11
-390.5635045718672
 21
-1544.762919747036
 31
0.0
  0
LINE
  5
385
330
343
100
AcDbEntity
  8
1
  6
Continuous
 62
     7
100
AcDbLine
 10
-390.5635045718672
 20
-1544.762919747036
 30
0.0
 11
-390.4578663096594
 21
-1544.489844444756
 31
0.0
  0
LINE
  5
386
330
343
100
AcDbEntity
  8
1
  6
Continuous
 62
     7
100
AcDbLine
 10
-390.4578663096594
 20
-1544.489844444756
 30
0.0
 11
-390.3410229699351
 21
-1544.236874194276
 31
0.0
  0
LINE
  5
387
330
343
100
AcDbEntity
  8
1
  6
Continuous
 62
     7
100
AcDbLine
 10
-390.3410229699351
 20
-1544.236874194276
 30
0.0
 11
-390.2134511784137
 21
-1544.004490839846
 31
0.0
  0
LINE
  5
388
330
343
100
AcDbEntity
  8
1
  6
Continuous
 62
     7
100
AcDbLine
 10
-390.2134511784137
 20
-1544.004490839846
 30
0.0
 11
-390.0751005358028
 21
-1543.792590917141
 31
0.0
  0
LINE
  5
389
330
343
100
AcDbEntity
  8
1
  6
Continuous
 62
     7
100
AcDbLine
 10
-390.0751005358028
 20
-1543.792590917141
 30
0.0
 11
-389.9261070630081
 21
-1543.601766296567
 31
0.0
  0
LINE
  5
38A
330
343
100
AcDbEntity
  8
1
  6
Continuous
 62
     7
100
AcDbLine
 10
-389.9261070630081
 20
-1543.601766296567
 30
0.0
 11
-389.7678692127023
 21
-1543.433991989488
 31
0.0
  0
LINE
  5
38B
330
343
100
AcDbEntity
  8
1
  6
Continuous
 62
     7
100
AcDbLine
 10
-389.7678692127023
 20
-1543.433991989488
 30
0.0
 11
-389.6022648123779
 21
-1543.291102626019
 31
0.0
  0
LINE
  5
38C
330
343
100
AcDbEntity
  8
1
  6
Continuous
 62
     7
100
AcDbLine
 10
-389.6022648123779
 20
-1543.291102626019
 30
0.0
 11
-389.4297749546471
 21
-1543.173261688906
 31
0.0
  0
LINE
  5
38D
330
343
100
AcDbEntity
  8
1
  6
Continuous
 62
     7
100
AcDbLine
 10
-389.4297749546471
 20
-1543.173261688906
 30
0.0
 11
-389.250114561088
 21
-1543.080418001899
 31
0.0
  0
LINE
  5
38E
330
343
100
AcDbEntity
  8
1
  6
Continuous
 62
     7
100
AcDbLine
 10
-389.250114561088
 20
-1543.080418001899
 30
0.0
 11
-389.0636267769222
 21
-1543.013122056018
 31
0.0
  0
LINE
  5
38F
330
343
100
AcDbEntity
  8
1
  6
Continuous
 62
     7
100
AcDbLine
 10
-389.0636267769222
 20
-1543.013122056018
 30
0.0
 11
-388.8722551386503
 21
-1542.972473632658
 31
0.0
  0
LINE
  5
390
330
343
100
AcDbEntity
  8
1
  6
Continuous
 62
     7
100
AcDbLine
 10
-388.8722551386503
 20
-1542.972473632658
 30
0.0
 11
-388.6768891200499
 21
-1542.958855655093
 31
0.0
  0
LINE
  5
391
330
343
100
AcDbEntity
  8
1
  6
Continuous
 62
     7
100
AcDbLine
 10
-326.6839067298478
 20
-1561.504886874971
 30
0.0
 11
-326.7929113446475
 21
-1561.477228471671
 31
0.0
  0
LINE
  5
392
330
343
100
AcDbEntity
  8
1
  6
Continuous
 62
     7
100
AcDbLine
 10
-326.7929113446475
 20
-1561.477228471671
 30
0.0
 11
-326.9835588749478
 21
-1561.458855655071
 31
0.0
  0
LINE
  5
393
330
343
100
AcDbEntity
  8
1
  6
Continuous
 62
     7
100
AcDbLine
 10
-382.9722318182475
 20
-1543.923956158371
 30
0.0
 11
-382.9597214371478
 21
-1543.733904600771
 31
0.0
  0
LINE
  5
394
330
343
100
AcDbEntity
  8
1
  6
Continuous
 62
     7
100
AcDbLine
 10
-382.9597214371478
 20
-1543.733904600771
 30
0.0
 11
-382.9293091335475
 21
-1543.552119011971
 31
0.0
  0
LINE
  5
395
330
343
100
AcDbEntity
  8
1
  6
Continuous
 62
     7
100
AcDbLine
 10
-382.9293091335475
 20
-1543.552119011971
 30
0.0
 11
-382.8821124268478
 21
-1543.385279218771
 31
0.0
  0
LINE
  5
396
330
343
100
AcDbEntity
  8
1
  6
Continuous
 62
     7
100
AcDbLine
 10
-382.8821124268478
 20
-1543.385279218771
 30
0.0
 11
-382.8198655899477
 21
-1543.239515854771
 31
0.0
  0
LINE
  5
397
330
343
100
AcDbEntity
  8
1
  6
Continuous
 62
     7
100
AcDbLine
 10
-382.8198655899477
 20
-1543.239515854771
 30
0.0
 11
-382.7448559222474
 21
-1543.120185087171
 31
0.0
  0
LINE
  5
398
330
343
100
AcDbEntity
  8
1
  6
Continuous
 62
     7
100
AcDbLine
 10
-382.7448559222474
 20
-1543.120185087171
 30
0.0
 11
-382.6598397014476
 21
-1543.031671800571
 31
0.0
  0
LINE
  5
399
330
343
100
AcDbEntity
  8
1
  6
Continuous
 62
     7
100
AcDbLine
 10
-382.6598397014476
 20
-1543.031671800571
 30
0.0
 11
-382.5679409024477
 21
-1542.977228471671
 31
0.0
  0
LINE
  5
39A
330
343
100
AcDbEntity
  8
1
  6
Continuous
 62
     7
100
AcDbLine
 10
-382.5679409024477
 20
-1542.977228471671
 30
0.0
 11
-382.4725364047475
 21
-1542.958855655071
 31
0.0
  0
ELLIPSE
  5
39B
330
343
100
AcDbEntity
  8
1
  6
Continuous
 62
     7
100
AcDbEllipse
 10
-383.4651878581475
 20
-1543.958855655071
 30
0.0
 11
1.013931638939368
 21
-0.09778476618402047
 31
0.0
210
0.0
220
0.0
230
1.0
 40
0.0917384779
 41
1.071949132649291
 42
2.63819014527429
  0
ARC
  5
39C
330
343
100
AcDbEntity
  8
1
  6
Continuous
 62
     7
100
AcDbCircle
 10
-385.2672865763478
 20
-1543.876455074571
 30
0.0
 40
0.9195368576207673
100
AcDbArc
 50
3.000048100999482
 51
86.27999717049266
  0
LINE
  5
39D
330
343
100
AcDbEntity
  8
1
  6
Continuous
 62
     7
100
AcDbLine
 10
-376.3826809649476
 20
-1543.923956158371
 30
0.0
 11
-382.9722318182475
 21
-1543.923956158371
 31
0.0
  0
LINE
  5
39E
330
343
100
AcDbEntity
  8
1
  6
Continuous
 62
     7
100
AcDbLine
 10
-376.3826809649476
 20
-1543.923956158371
 30
0.0
 11
-376.3701705837478
 21
-1543.733904600771
 31
0.0
  0
LINE
  5
39F
330
343
100
AcDbEntity
  8
1
  6
Continuous
 62
     7
100
AcDbLine
 10
-376.3701705837478
 20
-1543.733904600771
 30
0.0
 11
-376.3397582802476
 21
-1543.552119011971
 31
0.0
  0
LINE
  5
3A0
330
343
100
AcDbEntity
  8
1
  6
Continuous
 62
     7
100
AcDbLine
 10
-376.3397582802476
 20
-1543.552119011971
 30
0.0
 11
-376.2925615735475
 21
-1543.385279218771
 31
0.0
  0
LINE
  5
3A1
330
343
100
AcDbEntity
  8
1
  6
Continuous
 62
     7
100
AcDbLine
 10
-376.2925615735475
 20
-1543.385279218771
 30
0.0
 11
-376.2303147366478
 21
-1543.239515854771
 31
0.0
  0
LINE
  5
3A2
330
343
100
AcDbEntity
  8
1
  6
Continuous
 62
     7
100
AcDbLine
 10
-376.2303147366478
 20
-1543.239515854771
 30
0.0
 11
-376.1553050688475
 21
-1543.120185087171
 31
0.0
  0
LINE
  5
3A3
330
343
100
AcDbEntity
  8
1
  6
Continuous
 62
     7
100
AcDbLine
 10
-376.1553050688475
 20
-1543.120185087171
 30
0.0
 11
-376.0702888481477
 21
-1543.031671800571
 31
0.0
  0
LINE
  5
3A4
330
343
100
AcDbEntity
  8
1
  6
Continuous
 62
     7
100
AcDbLine
 10
-376.0702888481477
 20
-1543.031671800571
 30
0.0
 11
-375.9783900490478
 21
-1542.977228471671
 31
0.0
  0
LINE
  5
3A5
330
343
100
AcDbEntity
  8
1
  6
Continuous
 62
     7
100
AcDbLine
 10
-375.9783900490478
 20
-1542.977228471671
 30
0.0
 11
-375.8829855513476
 21
-1542.958855655071
 31
0.0
  0
LINE
  5
3A6
330
343
100
AcDbEntity
  8
1
  6
Continuous
 62
     7
100
AcDbLine
 10
-384.3490099523477
 20
-1543.828329462871
 30
0.0
 11
-387.8182726836475
 21
-1543.828329462871
 31
0.0
  0
ARC
  5
3A7
330
343
100
AcDbEntity
  8
1
  6
Continuous
 62
     7
100
AcDbCircle
 10
-388.7365493075475
 20
-1543.876455074571
 30
0.0
 40
0.9195368576207901
100
AcDbArc
 50
3.000048101000964
 51
86.27999717052093
  0
LINE
  5
3A8
330
343
100
AcDbEntity
  8
1
  6
Continuous
 62
     7
100
AcDbLine
 10
-382.9722318182475
 20
-1543.923956158371
 30
0.0
 11
-381.8551211843477
 21
-1555.493755151771
 31
0.0
  0
ARC
  5
3A9
330
343
100
AcDbEntity
  8
1
  6
Continuous
 62
     7
100
AcDbCircle
 10
-383.0773902252475
 20
-1547.827017900271
 30
0.0
 40
7.763555995304718
100
AcDbArc
 50
268.9959397778978
 51
279.0581473358984
  0
LINE
  5
3AA
330
343
100
AcDbEntity
  8
1
  6
Continuous
 62
     7
100
AcDbLine
 10
-383.2134330342477
 20
-1555.589381847271
 30
0.0
 11
-384.3490099523477
 21
-1543.828329462871
 31
0.0
  0
LINE
  5
3AB
330
343
100
AcDbEntity
  8
1
  6
Continuous
 62
     7
100
AcDbLine
 10
-377.9038178825475
 20
-1555.493755151771
 30
0.0
 11
-376.3826809649476
 21
-1543.923956158371
 31
0.0
  0
LINE
  5
3AC
330
343
100
AcDbEntity
  8
1
  6
Continuous
 62
     7
100
AcDbLine
 10
-381.8551211843477
 20
-1555.493755151771
 30
0.0
 11
-377.9038178825475
 21
-1555.493755151771
 31
0.0
  0
ELLIPSE
  5
3AD
330
343
100
AcDbEntity
  8
1
  6
Continuous
 62
     7
100
AcDbEllipse
 10
-355.5800562149478
 20
-1675.441052802971
 30
0.0
 11
-37.74364262753095
 21
329.7264105120536
 31
0.0
210
0.0
220
0.0
230
1.0
 40
0.0626506732
 41
1.165772316475221
 42
1.194454291272976
  0
LINE
  5
3AE
330
343
100
AcDbEntity
  8
1
  6
Continuous
 62
     7
100
AcDbLine
 10
-387.8182726836484
 20
-1543.828329462873
 30
0.0
 11
-387.9667954964783
 21
-1543.839232618398
 31
0.0
  0
LINE
  5
3AF
330
343
100
AcDbEntity
  8
1
  6
Continuous
 62
     7
100
AcDbLine
 10
-387.9667954964783
 20
-1543.839232618398
 30
0.0
 11
-388.1118065718646
 21
-1543.87176223067
 31
0.0
  0
LINE
  5
3B0
330
343
100
AcDbEntity
  8
1
  6
Continuous
 62
     7
100
AcDbLine
 10
-388.1118065718646
 20
-1543.87176223067
 30
0.0
 11
-388.2526502137106
 21
-1543.925589589096
 31
0.0
  0
LINE
  5
3B1
330
343
100
AcDbEntity
  8
1
  6
Continuous
 62
     7
100
AcDbLine
 10
-388.2526502137106
 20
-1543.925589589096
 30
0.0
 11
-388.3878869773465
 21
-1543.999823937572
 31
0.0
  0
LINE
  5
3B2
330
343
100
AcDbEntity
  8
1
  6
Continuous
 62
     7
100
AcDbLine
 10
-388.3878869773465
 20
-1543.999823937572
 30
0.0
 11
-388.5172702798071
 21
-1544.094015506509
 31
0.0
  0
LINE
  5
3B3
330
343
100
AcDbEntity
  8
1
  6
Continuous
 62
     7
100
AcDbLine
 10
-388.5172702798071
 20
-1544.094015506509
 30
0.0
 11
-388.6410157089798
 21
-1544.208190269326
 31
0.0
  0
LINE
  5
3B4
330
343
100
AcDbEntity
  8
1
  6
Continuous
 62
     7
100
AcDbLine
 10
-388.6410157089798
 20
-1544.208190269326
 30
0.0
 11
-388.7587635149929
 21
-1544.342213121142
 31
0.0
  0
LINE
  5
3B5
330
343
100
AcDbEntity
  8
1
  6
Continuous
 62
     7
100
AcDbLine
 10
-388.7587635149929
 20
-1544.342213121142
 30
0.0
 11
-388.8691303060917
 21
-1544.494637465585
 31
0.0
  0
LINE
  5
3B6
330
343
100
AcDbEntity
  8
1
  6
Continuous
 62
     7
100
AcDbLine
 10
-388.8691303060917
 20
-1544.494637465585
 30
0.0
 11
-388.9710878385798
 21
-1544.663901718322
 31
0.0
  0
LINE
  5
3B7
330
343
100
AcDbEntity
  8
1
  6
Continuous
 62
     7
100
AcDbLine
 10
-388.9710878385798
 20
-1544.663901718322
 30
0.0
 11
-389.0645295149865
 21
-1544.849537186429
 31
0.0
  0
LINE
  5
3B8
330
343
100
AcDbEntity
  8
1
  6
Continuous
 62
     7
100
AcDbLine
 10
-389.0645295149865
 20
-1544.849537186429
 30
0.0
 11
-389.1494804266239
 21
-1545.051629095604
 31
0.0
  0
LINE
  5
3B9
330
343
100
AcDbEntity
  8
1
  6
Continuous
 62
     7
100
AcDbLine
 10
-389.1494804266239
 20
-1545.051629095604
 30
0.0
 11
-389.2255786636141
 21
-1545.269814216943
 31
0.0
  0
LINE
  5
3BA
330
343
100
AcDbEntity
  8
1
  6
Continuous
 62
     7
100
AcDbLine
 10
-389.2255786636141
 20
-1545.269814216943
 30
0.0
 11
-389.2918614402773
 21
-1545.501324210162
 31
0.0
  0
LINE
  5
3BB
330
343
100
AcDbEntity
  8
1
  6
Continuous
 62
     7
100
AcDbLine
 10
-389.2918614402773
 20
-1545.501324210162
 30
0.0
 11
-389.3476986499985
 21
-1545.743938522445
 31
0.0
  0
LINE
  5
3BC
330
343
100
AcDbEntity
  8
1
  6
Continuous
 62
     7
100
AcDbLine
 10
-389.3476986499985
 20
-1545.743938522445
 30
0.0
 11
-389.3932200196126
 21
-1545.997742509139
 31
0.0
  0
LINE
  5
3BD
330
343
100
AcDbEntity
  8
1
  6
Continuous
 62
     7
100
AcDbLine
 10
-389.3932200196126
 20
-1545.997742509139
 30
0.0
 11
-389.4283291703294
 21
-1546.262793324941
 31
0.0
  0
LINE
  5
3BE
330
343
100
AcDbEntity
  8
1
  6
Continuous
 62
     7
100
AcDbLine
 10
-389.4283291703294
 20
-1546.262793324941
 30
0.0
 11
-389.4526324702387
 21
-1546.53738937655
 31
0.0
  0
LINE
  5
3BF
330
343
100
AcDbEntity
  8
1
  6
Continuous
 62
     7
100
AcDbLine
 10
-389.4526324702387
 20
-1546.53738937655
 30
0.0
 11
-389.4658884388258
 21
-1546.818542434522
 31
0.0
  0
LINE
  5
3C0
330
343
100
AcDbEntity
  8
1
  6
Continuous
 62
     7
100
AcDbLine
 10
-389.4658884388258
 20
-1546.818542434522
 30
0.0
 11
-389.4680255912571
 21
-1547.103924706726
 31
0.0
  0
LINE
  5
3C1
330
343
100
AcDbEntity
  8
1
  6
Continuous
 62
     7
100
AcDbLine
 10
-389.4680255912571
 20
-1547.103924706726
 30
0.0
 11
-389.4590730235676
 21
-1547.393917445776
 31
0.0
  0
LINE
  5
3C2
330
343
100
AcDbEntity
  8
1
  6
Continuous
 62
     7
100
AcDbLine
 10
-389.4590730235676
 20
-1547.393917445776
 30
0.0
 11
-389.4388297526151
 21
-1547.688731476062
 31
0.0
  0
LINE
  5
3C3
330
343
100
AcDbEntity
  8
1
  6
Continuous
 62
     7
100
AcDbLine
 10
-385.5120290653475
 20
-1555.589381847271
 30
0.0
 11
-383.2134330342477
 21
-1555.589381847271
 31
0.0
  0
ELLIPSE
  5
3C4
330
343
100
AcDbEntity
  8
1
  6
Continuous
 62
     7
100
AcDbEllipse
 10
-385.2840002505476
 20
-1557.589381847271
 30
0.0
 11
-0.3014998366102898
 21
1.99450194716951
 31
0.0
210
0.0
220
0.0
230
1.0
 40
0.4915284858
 41
6.209019454339612
 42
7.179063623500677
  0
LINE
  5
3C5
330
343
100
AcDbEntity
  8
1
  6
Continuous
 62
     7
100
AcDbLine
 10
-381.8551211843477
 20
-1555.493755151771
 30
0.0
 11
-381.8676315654478
 21
-1555.683806709471
 31
0.0
  0
LINE
  5
3C6
330
343
100
AcDbEntity
  8
1
  6
Continuous
 62
     7
100
AcDbLine
 10
-381.8676315654478
 20
-1555.683806709471
 30
0.0
 11
-381.8980438690477
 21
-1555.865592298171
 31
0.0
  0
LINE
  5
3C7
330
343
100
AcDbEntity
  8
1
  6
Continuous
 62
     7
100
AcDbLine
 10
-381.8980438690477
 20
-1555.865592298171
 30
0.0
 11
-381.9452405756477
 21
-1556.032432091471
 31
0.0
  0
LINE
  5
3C8
330
343
100
AcDbEntity
  8
1
  6
Continuous
 62
     7
100
AcDbLine
 10
-381.9452405756477
 20
-1556.032432091471
 30
0.0
 11
-382.0074874126475
 21
-1556.178195455471
 31
0.0
  0
LINE
  5
3C9
330
343
100
AcDbEntity
  8
1
  6
Continuous
 62
     7
100
AcDbLine
 10
-382.0074874126475
 20
-1556.178195455471
 30
0.0
 11
-382.0824970803477
 21
-1556.297526223071
 31
0.0
  0
ARC
  5
3CA
330
343
100
AcDbEntity
  8
1
  6
Continuous
 62
     7
100
AcDbCircle
 10
-382.2951564103477
 20
-1555.541256235671
 30
0.0
 40
0.9195368576207751
100
AcDbArc
 50
183.000048101001
 51
266.2799971704926
  0
LINE
  5
3CB
330
343
100
AcDbEntity
  8
1
  6
Continuous
 62
     7
100
AcDbLine
 10
-378.4035132960474
 20
-1556.458855655071
 30
0.0
 11
-378.3081087983477
 21
-1556.440482838571
 31
0.0
  0
LINE
  5
3CC
330
343
100
AcDbEntity
  8
1
  6
Continuous
 62
     7
100
AcDbLine
 10
-378.3081087983477
 20
-1556.440482838571
 30
0.0
 11
-378.2162099993478
 21
-1556.386039509671
 31
0.0
  0
LINE
  5
3CD
330
343
100
AcDbEntity
  8
1
  6
Continuous
 62
     7
100
AcDbLine
 10
-378.2162099993478
 20
-1556.386039509671
 30
0.0
 11
-378.1311937785475
 21
-1556.297526223071
 31
0.0
  0
LINE
  5
3CE
330
343
100
AcDbEntity
  8
1
  6
Continuous
 62
     7
100
AcDbLine
 10
-378.1311937785475
 20
-1556.297526223071
 30
0.0
 11
-378.0561841108478
 21
-1556.178195455471
 31
0.0
  0
LINE
  5
3CF
330
343
100
AcDbEntity
  8
1
  6
Continuous
 62
     7
100
AcDbLine
 10
-378.0561841108478
 20
-1556.178195455471
 30
0.0
 11
-377.9939372738476
 21
-1556.032432091471
 31
0.0
  0
LINE
  5
3D0
330
343
100
AcDbEntity
  8
1
  6
Continuous
 62
     7
100
AcDbLine
 10
-377.9939372738476
 20
-1556.032432091471
 30
0.0
 11
-377.9467405672475
 21
-1555.865592298171
 31
0.0
  0
LINE
  5
3D1
330
343
100
AcDbEntity
  8
1
  6
Continuous
 62
     7
100
AcDbLine
 10
-377.9467405672475
 20
-1555.865592298171
 30
0.0
 11
-377.9163282636476
 21
-1555.683806709471
 31
0.0
  0
LINE
  5
3D2
330
343
100
AcDbEntity
  8
1
  6
Continuous
 62
     7
100
AcDbLine
 10
-377.9163282636476
 20
-1555.683806709471
 30
0.0
 11
-377.9038178825475
 21
-1555.493755151771
 31
0.0
  0
LINE
  5
3D3
330
343
100
AcDbEntity
  8
1
  6
Continuous
 62
     7
100
AcDbLine
 10
-382.3548165978476
 20
-1556.458855655071
 30
0.0
 11
-378.4035132960474
 21
-1556.458855655071
 31
0.0
  0
ARC
  5
3D4
330
343
100
AcDbEntity
  8
1
  6
Continuous
 62
     7
100
AcDbCircle
 10
-384.5937524414475
 20
-1555.541256235671
 30
0.0
 40
0.919536857620716
100
AcDbArc
 50
183.0000481009995
 51
266.2799971704917
  0
ARC
  5
3D5
330
343
100
AcDbEntity
  8
1
  6
Continuous
 62
     7
100
AcDbCircle
 10
-389.7374277247476
 20
-1554.463725346071
 30
0.0
 40
6.781570812693679
100
AcDbArc
 50
87.47640525790136
 51
99.95984548990128
  0
LINE
  5
3D6
330
343
100
AcDbEntity
  8
1
  6
Continuous
 62
     8
100
AcDbLine
 10
-326.0546221611997
 20
-1562.119205501319
 30
0.0
 11
-326.0458935317382
 21
-1562.180603231804
 31
0.0
  0
LINE
  5
3D7
330
343
100
AcDbEntity
  8
1
  6
Continuous
 62
     8
100
AcDbLine
 10
-326.0458935317382
 20
-1562.180603231804
 30
0.0
 11
-326.0375463888012
 21
-1562.232798499131
 31
0.0
  0
LINE
  5
3D8
330
343
100
AcDbEntity
  8
1
  6
Continuous
 62
     8
100
AcDbLine
 10
-326.0375463888012
 20
-1562.232798499131
 30
0.0
 11
-326.029586162895
 21
-1562.276587943932
 31
0.0
  0
LINE
  5
3D9
330
343
100
AcDbEntity
  8
1
  6
Continuous
 62
     8
100
AcDbLine
 10
-326.029586162895
 20
-1562.276587943932
 30
0.0
 11
-326.0219599605451
 21
-1562.314319087423
 31
0.0
  0
LINE
  5
3DA
330
343
100
AcDbEntity
  8
1
  6
Continuous
 62
     8
100
AcDbLine
 10
-326.0219599605451
 20
-1562.314319087423
 30
0.0
 11
-326.0146508662591
 21
-1562.347539479432
 31
0.0
  0
LINE
  5
3DB
330
343
100
AcDbEntity
  8
1
  6
Continuous
 62
     8
100
AcDbLine
 10
-326.0146508662591
 20
-1562.347539479432
 30
0.0
 11
-326.0077529613062
 21
-1562.375328653784
 31
0.0
  0
LINE
  5
3DC
330
343
100
AcDbEntity
  8
1
  6
Continuous
 62
     8
100
AcDbLine
 10
-326.0077529613062
 20
-1562.375328653784
 30
0.0
 11
-326.0013816316585
 21
-1562.396292113449
 31
0.0
  0
LINE
  5
3DD
330
343
100
AcDbEntity
  8
1
  6
Continuous
 62
     8
100
AcDbLine
 10
-326.0013816316585
 20
-1562.396292113449
 30
0.0
 11
-325.9955841578065
 21
-1562.409890278658
 31
0.0
  0
LINE
  5
3DE
330
343
100
AcDbEntity
  8
1
  6
Continuous
 62
     8
100
AcDbLine
 10
-325.9955841578065
 20
-1562.409890278658
 30
0.0
 11
-325.9901964980376
 21
-1562.418236263592
 31
0.0
  0
LINE
  5
3DF
330
343
100
AcDbEntity
  8
1
  6
Continuous
 62
     8
100
AcDbLine
 10
-325.9901964980376
 20
-1562.418236263592
 30
0.0
 11
-325.9850137453099
 21
-1562.42395615839
 31
0.0
  0
ARC
  5
3E0
330
343
100
AcDbEntity
  8
1
  6
Continuous
 62
     8
100
AcDbCircle
 10
-326.9841839179475
 20
-1562.458494520971
 30
0.0
 40
0.9997669389881347
100
AcDbArc
 50
1.97975764579641
 51
72.52154281591551
  0
ELLIPSE
  5
3E1
330
343
100
AcDbEntity
  8
1
  6
Continuous
 62
     8
100
AcDbEllipse
 10
-376.8915531865476
 20
-1543.958855655071
 30
0.0
 11
1.025745163479435
 21
0.1306515484807846
 31
0.0
210
0.0
220
0.0
230
1.0
 40
0.032975745
 41
5.227285087067939
 42
6.273630535639288
  0
ARC
  5
3E2
330
343
100
AcDbEntity
  8
1
  6
Continuous
 62
     8
100
AcDbCircle
 10
-378.1203058453478
 20
-1557.923612672571
 30
0.0
 40
2.439482446980151
100
AcDbArc
 50
73.12215729439839
 51
84.90868014779217
  0
CIRCLE
  5
3E3
330
343
100
AcDbEntity
  8
1
  6
Continuous
 62
     7
100
AcDbCircle
 10
-366.4106053654476
 20
-1533.958855655071
 30
0.0
 40
3.000000000000022
  0
HATCH
  5
3E4
330
343
100
AcDbEntity
  8
1
  6
Continuous
 62
     7
100
AcDbHatch
 10
0.0
 20
0.0
 30
0.0
210
0.0
220
0.0
230
1.0
  2
_U
 70
     0
 71
     0
 91
        2
 92
        0
 93
       28
 72
     1
 10
-354.7099649868477
 20
-1536.200264487971
 11
-358.1112457440476
 21
-1528.717446822171
 72
     2
 10
-360.8423451764478
 20
-1529.958855655071
 40
3.0
 50
24.44395478039929
 51
90.0
 73
     1
 72
     1
 10
-360.8423451764478
 20
-1526.958855655071
 11
-371.9788655544475
 21
-1526.958855655071
 72
     2
 10
-371.9788655544475
 20
-1529.958855655071
 40
3.0
 50
90.0
 51
155.5560452196007
 73
     1
 72
     1
 10
-374.7099649868477
 20
-1528.717446822171
 11
-378.1112457440476
 21
-1536.200264487971
 72
     2
 10
-380.8423451764478
 20
-1534.958855655071
 40
3.0
 50
24.44395478039533
 51
90.0
 73
     0
 72
     1
 10
-380.8423451764478
 20
-1537.958855655071
 11
-402.3273336819478
 21
-1537.958855655071
 72
     2
 10
-402.3273336819478
 20
-1546.958855655071
 40
9.0
 50
90.0
 51
177.9999999999993
 73
     1
 72
     1
 10
-411.3218511251474
 20
-1546.644760184771
 11
-413.4106053654476
 21
-1606.458855655071
 72
     1
 10
-413.4106053654476
 20
-1606.458855655071
 11
-408.4081671882476
 21
-1606.458855655071
 72
     1
 10
-408.4081671882476
 20
-1606.458855655071
 11
-406.3592085865474
 21
-1547.784358171571
 72
     2
 10
-401.3622544514477
 20
-1547.958855655071
 40
5.000000000000002
 50
182.000000000001
 51
270.0
 73
     0
 72
     1
 10
-401.3622544514477
 20
-1542.958855655071
 11
-340.8762941402478
 21
-1542.958855655071
 72
     2
 10
-340.8762941402478
 20
-1543.958855655071
 40
1.000000000000003
 50
270.0
 51
357.999999999997
 73
     0
 72
     1
 10
-339.8769033132475
 20
-1543.923956158371
 11
-339.4728770295477
 21
-1555.493755151771
 72
     2
 10
-338.4734862025479
 20
-1555.458855655071
 40
1.000000000000004
 50
181.999999999991
 51
270.0
 73
     1
 72
     1
 10
-338.4734862025479
 20
-1556.458855655071
 11
-333.8762941402478
 21
-1556.458855655071
 72
     2
 10
-333.8762941402478
 20
-1557.458855655071
 40
1.0
 50
270.0
 51
357.999999999997
 73
     0
 72
     1
 10
-332.8769033132475
 20
-1557.423956158371
 11
-332.7697035702475
 21
-1560.493755151771
 72
     2
 10
-331.7703127431477
 20
-1560.458855655071
 40
1.000000000000003
 50
181.999999999991
 51
270.0
 73
     1
 72
     1
 10
-331.7703127431477
 20
-1561.458855655071
 11
-326.9501669446475
 21
-1561.458855655071
 72
     2
 10
-326.9501669446475
 20
-1562.458855655071
 40
1.000000000000028
 50
270.0
 51
357.9999999999961
 73
     0
 72
     1
 10
-325.9507761175477
 20
-1562.423956158371
 11
-324.4130435426476
 21
-1606.458855655071
 72
     1
 10
-324.4130435426476
 20
-1606.458855655071
 11
-319.4106053654476
 21
-1606.458855655071
 72
     1
 10
-319.4106053654476
 20
-1606.458855655071
 11
-321.4993596057478
 21
-1546.644760184771
 72
     2
 10
-330.4938770489479
 20
-1546.958855655071
 40
9.0
 50
2.000000000000655
 51
90.0
 73
     1
 72
     1
 10
-330.4938770489479
 20
-1537.958855655071
 11
-351.9788655544475
 21
-1537.958855655071
 72
     2
 10
-351.9788655544475
 20
-1534.958855655071
 40
3.000000000000004
 50
90.0
 51
155.5560452196047
 73
     0
 97
        0
 92
        0
 93
        1
 72
     2
 10
-366.4106053654476
 20
-1533.958855655071
 40
3.000000000000022
 50
0.0
 51
360.0
 73
     1
 97
        0
 75
     0
 76
     0
 52
45.00000000014619
 41
4.0
 77
     0
 78
     1
 53
45.00000000014619
 43
0.0
 44
0.0
 45
-2.828427124753407
 46
2.828427124738973
 79
     0
 98
        1
 10
0.0
 20
0.0
  0
LINE
  5
3E5
330
343
100
AcDbEntity
  8
1
  6
CENTER2
 62
     5
100
AcDbLine
 10
-360.8114589828655
 20
-1533.958855655071
 30
0.0
 11
-372.1737556314596
 21
-1533.958855655071
 31
0.0
  0
POINT
  5
3E6
330
343
100
AcDbEntity
  8
1
  6
Continuous
 62
     7
100
AcDbPoint
 10
-339.9106053654585
 20
-1542.958855655071
 30
0.0
  0
POINT
  5
3E7
330
343
100
AcDbEntity
  8
1
  6
Continuous
 62
     7
100
AcDbPoint
 10
-325.9844781697594
 20
-1561.458855655071
 30
0.0
  0
POINT
  5
3E8
330
343
100
AcDbEntity
  8
1
  6
Continuous
 62
     7
100
AcDbPoint
 10
-332.7360015180465
 20
-1561.458855655071
 30
0.0
  0
POINT
  5
3E9
330
343
100
AcDbEntity
  8
1
  6
Continuous
 62
     7
100
AcDbPoint
 10
-358.910605365461
 20
-1526.958855655071
 30
0.0
  0
POINT
  5
3EA
330
343
100
AcDbEntity
  8
1
  6
Continuous
 62
     7
100
AcDbPoint
 10
-353.9106053654342
 20
-1537.958855655071
 30
0.0
  0
POINT
  5
3EB
330
343
100
AcDbEntity
  8
1
  6
Continuous
 62
     7
100
AcDbPoint
 10
-373.9106053654344
 20
-1526.958855655071
 30
0.0
  0
POINT
  5
3EC
330
343
100
AcDbEntity
  8
1
  6
Continuous
 62
     7
100
AcDbPoint
 10
-378.9106053654613
 20
-1537.958855655071
 30
0.0
  0
ARC
  5
3ED
330
343
100
AcDbEntity
  8
1
  6
HIDDEN
 62
     1
100
AcDbCircle
 10
-331.458956279448
 20
-1547.958855655071
 30
0.0
 40
5.000000000000002
100
AcDbArc
 50
2.000000000000985
 51
90.0
  0
LINE
  5
3EE
330
343
100
AcDbEntity
  8
1
  6
HIDDEN
 62
     1
100
AcDbLine
 10
-326.4620021443478
 20
-1547.784358171571
 30
0.0
 11
-325.9507761175477
 21
-1562.423956158371
 31
0.0
  0
LINE
  5
3EF
330
343
100
AcDbEntity
  8
6
  6
Continuous
 62
     7
100
AcDbLine
 10
-344.6194319993064
 20
-1532.458855655071
 30
0.0
 11
-356.4106053654476
 21
-1532.458855655071
 31
0.0
  0
LINE
  5
3F0
330
343
100
AcDbEntity
  8
6
  6
Continuous
 62
     7
100
AcDbLine
 10
-363.8056817725618
 20
-1532.458855655071
 30
0.0
 11
-366.6194319993064
 21
-1532.458855655071
 31
0.0
  0
LINE
  5
3F1
330
343
100
AcDbEntity
  8
6
  6
Continuous
 62
     7
100
AcDbLine
 10
-344.6194319993064
 20
-1536.458855655071
 30
0.0
 11
-354.5769417658206
 21
-1536.458855655071
 31
0.0
  0
CIRCLE
  5
3F2
330
343
100
AcDbEntity
  8
6
  6
Continuous
 62
     7
100
AcDbCircle
 10
-366.6194319993064
 20
-1533.499437060581
 30
0.0
 40
1.0
  0
CIRCLE
  5
3F3
330
343
100
AcDbEntity
  8
6
  6
Continuous
 62
     7
100
AcDbCircle
 10
-344.6194319993064
 20
-1535.458855655071
 30
0.0
 40
1.0
  0
ARC
  5
3F4
330
343
100
AcDbEntity
  8
6
  6
Continuous
 62
     7
100
AcDbCircle
 10
-366.6194319993064
 20
-1535.458855655071
 30
0.0
 40
1.0
100
AcDbArc
 50
79.95857188423582
 51
280.367641442742
  0
ARC
  5
3F5
330
343
100
AcDbEntity
  8
6
  6
Continuous
 62
     7
100
AcDbCircle
 10
-344.6194319993064
 20
-1533.458855655071
 30
0.0
 40
1.0
100
AcDbArc
 50
270.0
 51
90.0
  0
LINE
  5
3F6
330
343
100
AcDbEntity
  8
6
  6
Continuous
 62
     7
100
AcDbLine
 10
-366.4394683679492
 20
-1536.44252891962
 30
0.0
 11
-364.4929564807472
 21
-1536.265936658202
 31
0.0
  0
LINE
  5
3F7
330
343
100
AcDbEntity
  8
6
  6
Continuous
 62
     7
100
AcDbLine
 10
-355.0687445793627
 20
-1535.410949384458
 30
0.0
 11
-344.5290806421962
 21
-1534.454765606959
 31
0.0
  0
LINE
  5
3F8
330
343
100
AcDbEntity
  8
6
  6
Continuous
 62
     7
100
AcDbLine
 10
-366.6194319993064
 20
-1534.458855655071
 30
0.0
 11
-363.4179330072487
 21
-1534.168407931297
 31
0.0
  0
LINE
  5
3F9
330
343
100
AcDbEntity
  8
6
  6
Continuous
 62
     7
100
AcDbLine
 10
-355.9418315958964
 20
-1533.490157948083
 30
0.0
 11
-344.5290806422307
 21
-1532.454765606962
 31
0.0
  0
LINE
  5
3FA
330
343
100
AcDbEntity
  8
1
  6
Continuous
 62
     7
100
AcDbLine
 10
-366.4394683679492
 20
-1536.44252891962
 30
0.0
 11
-364.663186174699
 21
-1536.44252891962
 31
0.0
  0
ENDBLK
  5
345
330
343
100
AcDbEntity
  8
0
100
AcDbBlockEnd
  0
ENDSEC
  0
SECTION
  2
ENTITIES
  0
LINE
  5
B1
330
1F
100
AcDbEntity
  8
1
  6
Continuous
 62
     7
100
AcDbLine
 10
-641.6626783413894
 20
-1079.991621020336
 30
0.0
 11
-87.66267834138944
 21
-1079.991621020336
 31
0.0
  0
LINE
  5
B2
330
1F
100
AcDbEntity
  8
1
  6
Continuous
 62
     7
100
AcDbLine
 10
-87.66267834138944
 20
-1079.991621020336
 30
0.0
 11
-87.66267834138944
 21
-1879.991621020336
 31
0.0
  0
LINE
  5
B3
330
1F
100
AcDbEntity
  8
1
  6
Continuous
 62
     7
100
AcDbLine
 10
-641.6626783413894
 20
-1879.991621020336
 30
0.0
 11
-641.6626783413894
 21
-1079.991621020336
 31
0.0
  0
INSERT
  5
D4
330
1F
100
AcDbEntity
  8
1
  6
Continuous
 62
     0
100
AcDbBlockReference
  2
BLK0
 10
-217.6625483413898
 20
-1825.991641020337
 30
0.0
  0
LINE
  5
D5
330
1F
100
AcDbEntity
  8
1
  6
Continuous
 62
     7
100
AcDbLine
 10
-207.6625583413897
 20
-1803.991663020337
 30
0.0
 11
-207.6625583413897
 21
-1879.991621020336
 31
0.0
  0
LINE
  5
D6
330
1F
100
AcDbEntity
  8
1
  6
Continuous
 62
     7
100
AcDbLine
 10
-217.6625483413898
 20
-1879.991621020336
 30
0.0
 11
-217.6625483413898
 21
-1803.991663020337
 31
0.0
  0
LINE
  5
D7
330
1F
100
AcDbEntity
  8
1
  6
Continuous
 62
     7
100
AcDbLine
 10
-251.6625483413898
 20
-1825.991641020337
 30
0.0
 11
-251.6625483413898
 21
-1859.991641020336
 31
0.0
  0
LINE
  5
D8
330
1F
100
AcDbEntity
  8
1
  6
Continuous
 62
     7
100
AcDbLine
 10
-261.6625383413898
 20
-1859.991641020336
 30
0.0
 11
-261.6625383413898
 21
-1825.991641020337
 31
0.0
  0
LINE
  5
D9
330
1F
100
AcDbEntity
  8
1
  6
Continuous
 62
     7
100
AcDbLine
 10
-295.6625383413898
 20
-1825.991641020337
 30
0.0
 11
-295.6625383413898
 21
-1859.991641020336
 31
0.0
  0
LINE
  5
DA
330
1F
100
AcDbEntity
  8
1
  6
Continuous
 62
     7
100
AcDbLine
 10
-305.6625283413896
 20
-1859.991641020336
 30
0.0
 11
-305.6625283413896
 21
-1825.991641020337
 31
0.0
  0
LINE
  5
DB
330
1F
100
AcDbEntity
  8
1
  6
Continuous
 62
     7
100
AcDbLine
 10
-339.6625283413894
 20
-1803.991663020337
 30
0.0
 11
-339.6625283413896
 21
-1859.991641020336
 31
0.0
  0
LINE
  5
DC
330
1F
100
AcDbEntity
  8
1
  6
Continuous
 62
     7
100
AcDbLine
 10
-107.6626583413895
 20
-1803.991663020337
 30
0.0
 11
-107.6626583413895
 21
-1825.991641020337
 31
0.0
  0
LINE
  5
DD
330
1F
100
AcDbEntity
  8
1
  6
Continuous
 62
     7
100
AcDbLine
 10
-117.6626483413895
 20
-1803.991663020337
 30
0.0
 11
-117.6626483413895
 21
-1825.991641020337
 31
0.0
  0
LINE
  5
DE
330
1F
100
AcDbEntity
  8
1
  6
Continuous
 62
     7
100
AcDbLine
 10
-107.6626583413895
 20
-1859.991641020336
 30
0.0
 11
-107.6626583413895
 21
-1879.991621020336
 31
0.0
  0
LINE
  5
DF
330
1F
100
AcDbEntity
  8
1
  6
Continuous
 62
     7
100
AcDbLine
 10
-117.6626483413895
 20
-1859.991641020336
 30
0.0
 11
-117.6626483413895
 21
-1879.991621020336
 31
0.0
  0
LINE
  5
E0
330
1F
100
AcDbEntity
  8
1
  6
Continuous
 62
     7
100
AcDbLine
 10
-135.6626303413898
 20
-1859.991641020336
 30
0.0
 11
-135.6626303413898
 21
-1879.991621020336
 31
0.0
  0
LINE
  5
E1
330
1F
100
AcDbEntity
  8
1
  6
Continuous
 62
     7
100
AcDbLine
 10
-349.6625183413896
 20
-1859.991641020336
 30
0.0
 11
-87.66267834138944
 21
-1859.991641020336
 31
0.0
  0
LINE
  5
E2
330
1F
100
AcDbEntity
  8
1
  6
Continuous
 62
     7
100
AcDbLine
 10
-87.66267834138944
 20
-1825.991641020337
 30
0.0
 11
-349.6625183413896
 21
-1825.991641020337
 31
0.0
  0
LINE
  5
E3
330
1F
100
AcDbEntity
  8
1
  6
Continuous
 62
     7
100
AcDbLine
 10
-349.6625183413896
 20
-1803.991663020337
 30
0.0
 11
-87.66267834138944
 21
-1803.991663020337
 31
0.0
  0
LINE
  5
E4
330
1F
100
AcDbEntity
  8
1
  6
Continuous
 62
     7
100
AcDbLine
 10
-349.6625183413896
 20
-1803.991663020337
 30
0.0
 11
-349.6625183413896
 21
-1879.991621020336
 31
0.0
  0
LINE
  5
E5
330
1F
100
AcDbEntity
  8
1
  6
Continuous
 62
     7
100
AcDbLine
 10
-339.6625283413894
 20
-1803.991663020337
 30
0.0
 11
-339.6625283413896
 21
-1859.991641020336
 31
0.0
  0
MTEXT
  5
E6
330
1F
100
AcDbEntity
  8
1
  6
Continuous
 62
     7
100
AcDbMText
 10
-348.1625233413897
 20
-1814.491656020337
 30
0.0
 40
7.0
 41
0.0
 71
     7
 72
     5
  1
{\fＭＳ 明朝|b0|i0|c128|p17;\W1.0;図}
  7
MTSTANDARD1
 73
     1
 44
0.8392857142857144
  0
MTEXT
  5
E7
330
1F
100
AcDbEntity
  8
1
  6
Continuous
 62
     7
100
AcDbMText
 10
-216.1625533413896
 20
-1870.491634020337
 30
0.0
 40
7.0
 41
0.0
 71
     7
 72
     5
  1
{\fＭＳ 明朝|b0|i0|c128|p17;\W1.0;図}
  7
MTSTANDARD1
 73
     1
 44
0.8392857142857144
  0
MTEXT
  5
E8
330
1F
100
AcDbEntity
  8
1
  6
Continuous
 62
     7
100
AcDbMText
 10
-348.1625233413897
 20
-1822.491648020337
 30
0.0
 40
7.0
 41
0.0
 71
     7
 72
     5
  1
{\fＭＳ 明朝|b0|i0|c128|p17;\W1.0;名}
  7
MTSTANDARD1
 73
     1
 44
0.8392857142857144
  0
MTEXT
  5
E9
330
1F
100
AcDbEntity
  8
1
  6
Continuous
 62
     7
100
AcDbMText
 10
-216.1625533413896
 20
-1878.491626020337
 30
0.0
 40
7.0
 41
0.0
 71
     7
 72
     5
  1
{\fＭＳ 明朝|b0|i0|c128|p17;\W1.0;番}
  7
MTSTANDARD1
 73
     1
 44
0.8392857142857144
  0
MTEXT
  5
EA
330
1F
100
AcDbEntity
  8
1
  6
Continuous
 62
     7
100
AcDbMText
 10
-348.1625233413897
 20
-1842.772547755229
 30
0.0
 40
7.0
 41
0.0
 71
     7
 72
     5
  1
{\fＭＳ 明朝|b0|i0|c128|p17;\W1.0;設}
  7
MTSTANDARD1
 73
     1
 44
0.8392857142857144
  0
MTEXT
  5
EB
330
1F
100
AcDbEntity
  8
1
  6
Continuous
 62
     7
100
AcDbMText
 10
-348.1625233413897
 20
-1850.772539755229
 30
0.0
 40
7.0
 41
0.0
 71
     7
 72
     5
  1
{\fＭＳ 明朝|b0|i0|c128|p17;\W1.0;計}
  7
MTSTANDARD1
 73
     1
 44
0.8392857142857144
  0
MTEXT
  5
EC
330
1F
100
AcDbEntity
  8
1
  6
Continuous
 62
     7
100
AcDbMText
 10
-216.1625533413896
 20
-1814.491656020337
 30
0.0
 40
7.0
 41
0.0
 71
     7
 72
     5
  1
{\fＭＳ 明朝|b0|i0|c128|p17;\W1.0;符}
  7
MTSTANDARD1
 73
     1
 44
0.8392857142857144
  0
MTEXT
  5
ED
330
1F
100
AcDbEntity
  8
1
  6
Continuous
 62
     7
100
AcDbMText
 10
-216.1625533413896
 20
-1822.491648020337
 30
0.0
 40
7.0
 41
0.0
 71
     7
 72
     5
  1
{\fＭＳ 明朝|b0|i0|c128|p17;\W1.0;号}
  7
MTSTANDARD1
 73
     1
 44
0.8392857142857144
  0
MTEXT
  5
EE
330
1F
100
AcDbEntity
  8
1
  6
Continuous
 62
     7
100
AcDbMText
 10
-216.1625533413896
 20
-1842.772547755229
 30
0.0
 40
7.0
 41
0.0
 71
     7
 72
     5
  1
{\fＭＳ 明朝|b0|i0|c128|p17;\W1.0;記}
  7
MTSTANDARD1
 73
     1
 44
0.8392857142857144
  0
MTEXT
  5
EF
330
1F
100
AcDbEntity
  8
1
  6
Continuous
 62
     7
100
AcDbMText
 10
-216.1625533413896
 20
-1850.772539755229
 30
0.0
 40
7.0
 41
0.0
 71
     7
 72
     5
  1
{\fＭＳ 明朝|b0|i0|c128|p17;\W1.0;事}
  7
MTSTANDARD1
 73
     1
 44
0.8392857142857144
  0
MTEXT
  5
F0
330
1F
100
AcDbEntity
  8
1
  6
Continuous
 62
     7
100
AcDbMText
 10
-116.162653341393
 20
-1814.491656020337
 30
0.0
 40
7.0
 41
0.0
 71
     7
 72
     5
  1
{\fＭＳ 明朝|b0|i0|c128|p17;\W1.0;縮}
  7
MTSTANDARD1
 73
     1
 44
0.8392857142857144
  0
MTEXT
  5
F1
330
1F
100
AcDbEntity
  8
1
  6
Continuous
 62
     7
100
AcDbMText
 10
-116.162653341393
 20
-1822.491648020337
 30
0.0
 40
7.0
 41
0.0
 71
     7
 72
     5
  1
{\fＭＳ 明朝|b0|i0|c128|p17;\W1.0;尺}
  7
MTSTANDARD1
 73
     1
 44
0.8392857142857144
  0
MTEXT
  5
F3
330
1F
100
AcDbEntity
  8
1
  6
Continuous
 62
     7
100
AcDbMText
 10
-317.6625183413896
 20
-1874.491631020337
 30
0.0
 40
9.0
 41
0.0
 71
     7
 72
     5
  1
{\fＭＳ ゴシック|b0|i0|c128|p49;\W1.0;伊藤鉄工株式会社}
  7
MTSTANDARD3
 73
     1
 44
0.7916666666666667
  0
MTEXT
  5
F5
330
1F
100
AcDbEntity
  8
1
  6
Continuous
 62
     7
100
AcDbMText
 10
-115.6626533413894
 20
-1867.991636020337
 30
0.0
 40
6.0
 41
0.0
 71
     7
 72
     5
  1
{\fＭＳ 明朝|b0|i0|c128|p17;\W1.0;葉}
  7
MTSTANDARD4
 73
     1
 44
0.8333333333333334
  0
MTEXT
  5
F6
330
1F
100
AcDbEntity
  8
1
  6
Continuous
 62
     7
100
AcDbMText
 10
-115.6626533413894
 20
-1872.991631020337
 30
0.0
 40
6.0
 41
0.0
 71
     7
 72
     5
  1
{\fＭＳ 明朝|b0|i0|c128|p17;\W1.0;ノ}
  7
MTSTANDARD4
 73
     1
 44
0.8333333333333334
  0
MTEXT
  5
F7
330
1F
100
AcDbEntity
  8
1
  6
Continuous
 62
     7
100
AcDbMText
 10
-115.6626533413894
 20
-1877.991626020337
 30
0.0
 40
6.0
 41
0.0
 71
     7
 72
     5
  1
{\fＭＳ 明朝|b0|i0|c128|p17;\W1.0;内}
  7
MTSTANDARD4
 73
     1
 44
0.8333333333333334
  0
LINE
  5
F8
330
1F
100
AcDbEntity
  8
1
  6
Continuous
 62
     7
100
AcDbLine
 10
-349.6625183413896
 20
-1803.991663020337
 30
0.0
 11
-349.6625183413896
 21
-1879.991621020336
 31
0.0
  0
LINE
  5
F9
330
1F
100
AcDbEntity
  8
1
  6
Continuous
 62
     7
100
AcDbLine
 10
-349.6625183413896
 20
-1803.991663020337
 30
0.0
 11
-349.6625183413896
 21
-1879.991621020336
 31
0.0
  0
LINE
  5
FA
330
1F
100
AcDbEntity
  8
1
  6
Continuous
 62
     7
100
AcDbLine
 10
-107.6626583413895
 20
-1879.991621020336
 30
0.0
 11
-87.66267834138944
 21
-1859.991641020336
 31
0.0
  0
MTEXT
  5
FB
330
1F
100
AcDbEntity
  8
1
  6
Continuous
 62
     7
100
AcDbMText
 10
-198.6626033413897
 20
-1818.991652020337
 30
0.0
 40
8.0
 41
0.0
 71
     7
 72
     5
  1
{\fＭＳ 明朝|b0|i0|c128|p17;\W1.0;Ｔ５ＡＹＣＯ－５０}
  7
MTSTANDARD
 73
     1
 44
1.171874999999988
  0
MTEXT
  5
FC
330
1F
100
AcDbEntity
  8
1
  6
Continuous
 62
     7
100
AcDbMText
 10
-333.6625223413873
 20
-1823.991652020337
 30
0.0
 40
8.0
 41
0.0
 71
     7
 72
     5
  1
{\fＭＳ 明朝|b0|i0|c128|p17;\W1.0;シート露出防水用\P床上掃除口付き床排水トラップ}
  7
MTSTANDARD
 73
     1
 44
0.78125
  0
MTEXT
  5
FD
330
1F
100
AcDbEntity
  8
1
  6
Continuous
 62
     7
100
AcDbMText
 10
-102.1626683413895
 20
-1817.991652020337
 30
0.0
 40
6.0
 41
0.0
 71
     7
 72
     5
  1
{\fＭＳ 明朝|b0|i0|c128|p17;\W1.0;1/2}
  7
MTSTANDARD4
 73
     1
 44
1.354165520833317
  0
LINE
  5
FE
330
1F
100
AcDbEntity
  8
1
  6
Continuous
 62
     7
100
AcDbLine
 10
-641.6626783413894
 20
-1879.991621020336
 30
0.0
 11
-87.66267834138944
 21
-1879.991621020336
 31
0.0
  0
LINE
  5
FF
330
1F
100
AcDbEntity
  8
1
  6
Continuous
 62
     7
100
AcDbLine
 10
-87.66267834138944
 20
-1879.991621020336
 30
0.0
 11
-87.66267834138944
 21
-1803.991663020337
 31
0.0
  0
MTEXT
  5
100
330
1F
100
AcDbEntity
  8
1
  6
Continuous
 62
     7
100
AcDbMText
 10
-207.3663220450933
 20
-1874.031421541598
 30
0.0
 40
8.0
 41
0.0
 71
     7
 72
     5
  1
{\fＭＳ 明朝|b0|i0|c128|p17;\W1.0;Ｇ０１Ａ１５０４７}
  7
MTSTANDARD
 73
     1
 44
3.28125
  0
LINE
  5
101
330
1F
100
AcDbEntity
  8
6
  6
CENTER2
 62
     7
100
AcDbLine
 10
-366.4106053654476
 20
-1645.95885565507
 30
0.0
 11
-366.4106053654476
 21
-1459.541327028312
 31
0.0
  0
INSERT
  5
109
330
1F
100
AcDbEntity
  8
1
  6
ByBlock
 62
     3
100
AcDbBlockReference
  2
BALN0
 10
-305.6209014537112
 20
-1618.274213068156
 30
0.0
  0
INSERT
  5
111
330
1F
100
AcDbEntity
  8
1
  6
ByBlock
 62
     3
100
AcDbBlockReference
  2
BALN1
 10
-321.1413334252999
 20
-1599.851668493665
 30
0.0
  0
INSERT
  5
119
330
1F
100
AcDbEntity
  8
1
  6
ByBlock
 62
     3
100
AcDbBlockReference
  2
BALN2
 10
-295.041374360064
 20
-1527.526655565293
 30
0.0
  0
CIRCLE
  5
11A
330
1F
100
AcDbEntity
  8
1
  6
Continuous
 62
     7
100
AcDbCircle
 10
-366.4106053654474
 20
-1235.503361623827
 30
0.0
 40
117.5000000000001
  0
CIRCLE
  5
11B
330
1F
100
AcDbEntity
  8
1
  6
Continuous
 62
     7
100
AcDbCircle
 10
-366.4106053654474
 20
-1235.503361623827
 30
0.0
 40
112.4999999999866
  0
CIRCLE
  5
11C
330
1F
100
AcDbEntity
  8
1
  6
Continuous
 62
     7
100
AcDbCircle
 10
-366.4106053654474
 20
-1235.503361623827
 30
0.0
 40
103.9158681310037
  0
LINE
  5
11D
330
1F
100
AcDbEntity
  8
1
  6
CENTER2
 62
     7
100
AcDbLine
 10
-366.4106053654474
 20
-1365.503361623827
 30
0.0
 11
-366.4106053654474
 21
-1105.503361623827
 31
0.0
  0
LINE
  5
11E
330
1F
100
AcDbEntity
  8
1
  6
CENTER2
 62
     7
100
AcDbLine
 10
-236.4106053654467
 20
-1235.503361623827
 30
0.0
 11
-496.4106053654471
 21
-1235.503361623827
 31
0.0
  0
INSERT
  5
12F
330
1F
100
AcDbEntity
  8
1
  6
Continuous
 62
     7
100
AcDbBlockReference
  2
BLK1
 10
-366.4106053654475
 20
-1572.95885565507
 30
0.0
  0
MTEXT
  5
130
102
{ACAD_REACTORS
330
132
102
}
330
1F
100
AcDbEntity
  8
1
  6
Continuous
 62
     2
100
AcDbMText
 10
-286.6606053654473
 20
-1581.278654648475
 30
0.0
 40
8.0
 41
0.0
 71
     7
 72
     5
  1
{\fＭＳ ゴシック|b0|i0|c128|p49;\W1.0;調節管（別途価格）\PYDG-100A MIN＝82ｍｍ}
  7
MTSTANDARD
 73
     1
 44
0.9375
  0
LEADER
  5
132
330
1F
100
AcDbEntity
  8
1
  6
Continuous
 62
     7
100
AcDbLeader
  3
DIMSTYEX_4
 73
     0
 74
     0
 76
     3
 10
-309.4106053654475
 20
-1549.858855655044
 30
0.0
 10
-286.6606053654473
 20
-1569.278654648475
 30
0.0
 10
-285.6606053654473
 20
-1569.278654648475
 30
0.0
340
130
1001
ACAD
1000
DSTYLE
1002
{
1070
   176
1070
     0
1002
}
  0
LINE
  5
133
330
1F
100
AcDbEntity
  8
1
  6
Continuous
 62
     7
100
AcDbLine
 10
-624.1778342782004
 20
-1695.268007547695
 30
0.0
 11
-624.1778342782004
 21
-1855.268007547691
 31
0.0
  0
MTEXT
  5
134
330
1F
100
AcDbEntity
  8
1
  6
Continuous
 62
     7
100
AcDbMText
 10
-623.9555432101388
 20
-1707.268007547695
 30
0.0
 40
8.0
 41
0.0
 71
     7
 72
     5
  1
{\fＭＳ 明朝|b0|i0|c128|p17;\W1.0;部番}
  7
MTSTANDARD
 73
     1
 44
0.9375000000000111
  0
MTEXT
  5
135
330
1F
100
AcDbEntity
  8
1
  6
Continuous
 62
     7
100
AcDbMText
 10
-590.0430686532004
 20
-1707.268007547695
 30
0.0
 40
8.0
 41
0.0
 71
     7
 72
     5
  1
{\fＭＳ 明朝|b0|i0|c128|p17;\W1.0;部品名}
  7
MTSTANDARD
 73
     1
 44
1.875000000000027
  0
MTEXT
  5
136
330
1F
100
AcDbEntity
  8
1
  6
Continuous
 62
     7
100
AcDbMText
 10
-513.0879905282034
 20
-1707.268007547695
 30
0.0
 40
8.0
 41
0.0
 71
     7
 72
     5
  1
{\fＭＳ 明朝|b0|i0|c128|p17;\W1.0;材質}
  7
MTSTANDARD
 73
     1
 44
1.875000000000027
  0
MTEXT
  5
137
330
1F
100
AcDbEntity
  8
1
  6
Continuous
 62
     7
100
AcDbMText
 10
-435.1778342782064
 20
-1707.268007547695
 30
0.0
 40
8.0
 41
0.0
 71
     7
 72
     5
  1
{\fＭＳ 明朝|b0|i0|c128|p17;\W1.0;備考}
  7
MTSTANDARD
 73
     1
 44
0.9375
  0
INSERT
  5
13D
330
1F
100
AcDbEntity
  8
1
  6
Continuous
 62
     3
100
AcDbBlockReference
  2
MAKR0
 10
-616.1778342782004
 20
-1719.268007547695
 30
0.0
  0
INSERT
  5
143
330
1F
100
AcDbEntity
  8
1
  6
Continuous
 62
     3
100
AcDbBlockReference
  2
MAKR1
 10
-616.1778342782004
 20
-1735.268007547694
 30
0.0
  0
LINE
  5
144
330
1F
100
AcDbEntity
  8
1
  6
Continuous
 62
     7
100
AcDbLine
 10
-608.1778342782004
 20
-1695.268007547695
 30
0.0
 11
-608.1778342782004
 21
-1855.268007547691
 31
0.0
  0
LINE
  5
145
330
1F
100
AcDbEntity
  8
1
  6
Continuous
 62
     7
100
AcDbLine
 10
-548.1778342782004
 20
-1695.268007547695
 30
0.0
 11
-548.1778342782004
 21
-1855.268007547691
 31
0.0
  0
LINE
  5
146
330
1F
100
AcDbEntity
  8
1
  6
Continuous
 62
     7
100
AcDbLine
 10
-462.1778342782064
 20
-1695.268007547695
 30
0.0
 11
-462.1778342782064
 21
-1855.268007547691
 31
0.0
  0
LINE
  5
147
330
1F
100
AcDbEntity
  8
1
  6
Continuous
 62
     7
100
AcDbLine
 10
-392.1778342782064
 20
-1695.268007547695
 30
0.0
 11
-392.1778342782064
 21
-1855.268007547691
 31
0.0
  0
LINE
  5
148
330
1F
100
AcDbEntity
  8
1
  6
Continuous
 62
     7
100
AcDbLine
 10
-373.5111676115389
 20
-1695.268007547695
 30
0.0
 11
-624.1778342782004
 21
-1695.268007547695
 31
0.0
  0
LINE
  5
149
330
1F
100
AcDbEntity
  8
1
  6
Continuous
 62
     7
100
AcDbLine
 10
-624.1778342782004
 20
-1711.268007547695
 30
0.0
 11
-373.5111676115389
 21
-1711.268007547695
 31
0.0
  0
LINE
  5
14A
330
1F
100
AcDbEntity
  8
1
  6
Continuous
 62
     7
100
AcDbLine
 10
-548.1778342782068
 20
-1743.268007547668
 30
0.0
 11
-624.1778342782004
 21
-1743.268007547695
 31
0.0
  0
LINE
  5
14B
330
1F
100
AcDbEntity
  8
1
  6
Continuous
 62
     7
100
AcDbLine
 10
-373.5111676115389
 20
-1727.268007547695
 30
0.0
 11
-624.1778342782004
 21
-1727.268007547695
 31
0.0
  0
LINE
  5
14C
330
1F
100
AcDbEntity
  8
1
  6
Continuous
 62
     7
100
AcDbLine
 10
-624.1778342782009
 20
-1759.268007547694
 30
0.0
 11
-373.5111676115389
 21
-1759.268007547694
 31
0.0
  0
INSERT
  5
152
330
1F
100
AcDbEntity
  8
1
  6
Continuous
 62
     3
100
AcDbBlockReference
  2
MAKR2
 10
-616.1778342782063
 20
-1751.268007547694
 30
0.0
  0
MTEXT
  5
153
330
1F
100
AcDbEntity
  8
1
  6
Continuous
 62
     7
100
AcDbMText
 10
-597.9532249032004
 20
-1723.268007547695
 30
0.0
 40
8.0
 41
0.0
 71
     7
 72
     5
  1
{\fＭＳ 明朝|b0|i0|c128|p17;\W1.0;掃除口本体}
  7
MTSTANDARD
 73
     1
 44
1.874999999999991
  0
LINE
  5
154
330
1F
100
AcDbEntity
  8
1
  6
Continuous
 62
     7
100
AcDbLine
 10
-624.1778342782009
 20
-1775.268007547694
 30
0.0
 11
-462.1778342782064
 21
-1775.268007547694
 31
0.0
  0
INSERT
  5
15A
330
1F
100
AcDbEntity
  8
1
  6
Continuous
 62
     3
100
AcDbBlockReference
  2
MAKR3
 10
-616.1778342782068
 20
-1767.268007547694
 30
0.0
  0
INSERT
  5
160
330
1F
100
AcDbEntity
  8
1
  6
Continuous
 62
     3
100
AcDbBlockReference
  2
MAKR4
 10
-616.177834278199
 20
-1783.268007547694
 30
0.0
  0
INSERT
  5
166
330
1F
100
AcDbEntity
  8
1
  6
Continuous
 62
     3
100
AcDbBlockReference
  2
MAKR5
 10
-616.177834278199
 20
-1799.268007547694
 30
0.0
  0
LINE
  5
167
330
1F
100
AcDbEntity
  8
1
  6
Continuous
 62
     7
100
AcDbLine
 10
-373.5111676115389
 20
-1807.268007547692
 30
0.0
 11
-624.177834278199
 21
-1807.268007547694
 31
0.0
  0
LINE
  5
168
330
1F
100
AcDbEntity
  8
1
  6
Continuous
 62
     7
100
AcDbLine
 10
-373.5111676115389
 20
-1791.268007547694
 30
0.0
 11
-624.177834278199
 21
-1791.268007547694
 31
0.0
  0
LINE
  5
169
330
1F
100
AcDbEntity
  8
1
  6
Continuous
 62
     7
100
AcDbLine
 10
-624.177834278199
 20
-1823.268007547694
 30
0.0
 11
-373.5111676115389
 21
-1823.268007547694
 31
0.0
  0
INSERT
  5
16F
330
1F
100
AcDbEntity
  8
1
  6
Continuous
 62
     3
100
AcDbBlockReference
  2
MAKR6
 10
-616.177834278205
 20
-1815.268007547694
 30
0.0
  0
LINE
  5
170
330
1F
100
AcDbEntity
  8
1
  6
Continuous
 62
     7
100
AcDbLine
 10
-624.177834278199
 20
-1839.268007547693
 30
0.0
 11
-373.5111676115389
 21
-1839.268007547693
 31
0.0
  0
INSERT
  5
176
330
1F
100
AcDbEntity
  8
1
  6
Continuous
 62
     3
100
AcDbBlockReference
  2
MAKR7
 10
-616.177834278205
 20
-1831.268007547693
 30
0.0
  0
LINE
  5
177
330
1F
100
AcDbEntity
  8
1
  6
Continuous
 62
     7
100
AcDbLine
 10
-624.177834278199
 20
-1855.268007547691
 30
0.0
 11
-373.5111676115389
 21
-1855.268007547691
 31
0.0
  0
INSERT
  5
17D
330
1F
100
AcDbEntity
  8
1
  6
Continuous
 62
     3
100
AcDbBlockReference
  2
MAKR8
 10
-616.177834278205
 20
-1847.268007547691
 30
0.0
  0
MTEXT
  5
17E
330
1F
100
AcDbEntity
  8
1
  6
Continuous
 62
     7
100
AcDbMText
 10
-525.1778342782034
 20
-1803.268007547694
 30
0.0
 40
8.0
 41
0.0
 71
     7
 72
     5
  1
{\fＭＳ 明朝|b0|i0|c128|p17;\W1.0;CAC202黄銅}
  7
MTSTANDARD
 73
     1
 44
0.9374999999999734
  0
MTEXT
  5
180
330
1F
100
AcDbEntity
  8
1
  6
Continuous
 62
     7
100
AcDbMText
 10
-533.6778342781985
 20
-1787.068007547694
 30
0.0
 40
7.6
 41
0.0
 71
     7
 72
     5
  1
{\fＭＳ 明朝|b0|i0|c128|p17;\W1.0;NBRニトリルゴム}
  7
MTSTANDARD5
 73
     1
 44
0.9703947368421053
  0
MTEXT
  5
181
330
1F
100
AcDbEntity
  8
1
  6
Continuous
 62
     7
100
AcDbMText
 10
-523.1778342782034
 20
-1723.268007547695
 30
0.0
 40
8.0
 41
0.0
 71
     7
 72
     5
  1
{\fＭＳ 明朝|b0|i0|c128|p17;\W1.0;FC150鋳鉄}
  7
MTSTANDARD
 73
     1
 44
0.9375
  0
MTEXT
  5
182
330
1F
100
AcDbEntity
  8
1
  6
Continuous
 62
     7
100
AcDbMText
 10
-446.9532249032064
 20
-1723.268007547695
 30
0.0
 40
8.0
 41
0.0
 71
     7
 72
     5
  1
{\fＭＳ 明朝|b0|i0|c128|p17;\W1.0;錆止め塗装}
  7
MTSTANDARD
 73
     1
 44
1.874999999999991
  0
MTEXT
  5
183
330
1F
100
AcDbEntity
  8
1
  6
Continuous
 62
     7
100
AcDbMText
 10
-590.0430686532068
 20
-1819.268007547694
 30
0.0
 40
8.0
 41
0.0
 71
     7
 72
     5
  1
{\fＭＳ 明朝|b0|i0|c128|p17;\W1.0;本　体}
  7
MTSTANDARD
 73
     1
 44
1.874999999999991
  0
MTEXT
  5
184
330
1F
100
AcDbEntity
  8
1
  6
Continuous
 62
     7
100
AcDbMText
 10
-582.1329124032197
 20
-1739.268007547615
 30
0.0
 40
8.0
 41
0.0
 71
     7
 72
     5
  1
{\fＭＳ 明朝|b0|i0|c128|p17;\W1.0;枠}
  7
MTSTANDARD
 73
     1
 44
1.874999999999969
  0
MTEXT
  5
185
330
1F
100
AcDbEntity
  8
1
  6
Continuous
 62
     7
100
AcDbMText
 10
-593.9981467782109
 20
-1787.268007547694
 30
0.0
 40
8.0
 41
0.0
 71
     7
 72
     5
  1
{\fＭＳ 明朝|b0|i0|c128|p17;\W1.0;Ｏリング}
  7
MTSTANDARD
 73
     1
 44
1.874999999999991
  0
MTEXT
  5
186
330
1F
100
AcDbEntity
  8
1
  6
Continuous
 62
     7
100
AcDbMText
 10
-582.1329124032068
 20
-1835.26800754772
 30
0.0
 40
8.0
 41
0.0
 71
     7
 72
     5
  1
{\fＭＳ 明朝|b0|i0|c128|p17;\W1.0;椀}
  7
MTSTANDARD
 73
     1
 44
1.874999999998641
  0
MTEXT
  5
187
330
1F
100
AcDbEntity
  8
1
  6
Continuous
 62
     7
100
AcDbMText
 10
-586.1778342782004
 20
-1851.268007547692
 30
0.0
 40
8.0
 41
0.0
 71
     7
 72
     5
  1
{\fＭＳ 明朝|b0|i0|c128|p17;\W1.0;ビス}
  7
MTSTANDARD
 73
     1
 44
0.9374999999999467
  0
MTEXT
  5
188
330
1F
100
AcDbEntity
  8
1
  6
Continuous
 62
     7
100
AcDbMText
 10
-521.1778342782034
 20
-1851.268007547692
 30
0.0
 40
8.0
 41
0.0
 71
     7
 72
     5
  1
{\fＭＳ 明朝|b0|i0|c128|p17;\W1.0;SWRM軟鋼}
  7
MTSTANDARD
 73
     1
 44
0.9374999999999467
  0
MTEXT
  5
189
330
1F
100
AcDbEntity
  8
1
  6
Continuous
 62
     7
100
AcDbMText
 10
-453.9083030282105
 20
-1851.268007547691
 30
0.0
 40
8.0
 41
0.0
 71
     7
 72
     5
  1
{\fＭＳ 明朝|b0|i0|c128|p17;\W1.0;ユニクロメッキ}
  7
MTSTANDARD
 73
     1
 44
1.875
  0
MTEXT
  5
18A
330
1F
100
AcDbEntity
  8
1
  6
Continuous
 62
     7
100
AcDbMText
 10
-446.9532249032064
 20
-1819.268007547694
 30
0.0
 40
8.0
 41
0.0
 71
     7
 72
     5
  1
{\fＭＳ 明朝|b0|i0|c128|p17;\W1.0;錆止め塗装}
  7
MTSTANDARD
 73
     1
 44
1.874999999999991
  0
MTEXT
  5
18B
330
1F
100
AcDbEntity
  8
1
  6
Continuous
 62
     7
100
AcDbMText
 10
-448.1778342783492
 20
-1805.368007547692
 30
0.0
 40
6.0
 41
0.0
 71
     7
 72
     5
  1
{\fＭＳ 明朝|b0|i0|c128|p17;\W1.0;ニッケル　\Pクロームメッキ}
  7
MTSTANDARD4
 73
     1
 44
0.6458333333333334
  0
MTEXT
  5
18C
330
1F
100
AcDbEntity
  8
1
  6
Continuous
 62
     7
100
AcDbMText
 10
-455.1778342783492
 20
-1753.934674214361
 30
0.0
 40
8.0
 41
0.0
 71
     7
 72
     5
  1
{\fＭＳ 明朝|b0|i0|c128|p17;\W1.0;ニッケル\Pクロームメッキ}
  7
MTSTANDARD
 73
     1
 44
1.041666666666655
  0
MTEXT
  5
18D
330
1F
100
AcDbEntity
  8
1
  6
Continuous
 62
     7
100
AcDbMText
 10
-523.1778342782034
 20
-1819.268007547693
 30
0.0
 40
8.0
 41
0.0
 71
     7
 72
     5
  1
{\fＭＳ 明朝|b0|i0|c128|p17;\W1.0;FC150鋳鉄}
  7
MTSTANDARD
 73
     1
 44
0.937500000000071
  0
MTEXT
  5
18E
330
1F
100
AcDbEntity
  8
1
  6
Continuous
 62
     7
100
AcDbMText
 10
-513.1778342782034
 20
-1835.268007547694
 30
0.0
 40
8.0
 41
0.0
 71
     7
 72
     5
  1
{\fＭＳ 明朝|b0|i0|c128|p17;\W1.0;樹脂}
  7
MTSTANDARD
 73
     1
 44
0.9374999999999467
  0
MTEXT
  5
18F
330
1F
100
AcDbEntity
  8
1
  6
Continuous
 62
     7
100
AcDbMText
 10
-529.1778342782034
 20
-1771.268007547694
 30
0.0
 40
8.0
 41
0.0
 71
     7
 72
     5
  1
{\fＭＳ 明朝|b0|i0|c128|p17;\W1.0;ポリエチレン}
  7
MTSTANDARD
 73
     1
 44
0.9375
  0
MTEXT
  5
190
330
1F
100
AcDbEntity
  8
1
  6
Continuous
 62
     7
100
AcDbMText
 10
-525.1778342782034
 20
-1747.268007547694
 30
0.0
 40
8.0
 41
0.0
 71
     7
 72
     5
  1
{\fＭＳ 明朝|b0|i0|c128|p17;\W1.0;CAC202黄銅}
  7
MTSTANDARD
 73
     1
 44
1.562499999999982
  0
MTEXT
  5
191
330
1F
100
AcDbEntity
  8
1
  6
Continuous
 62
     7
100
AcDbMText
 10
-590.0430686532145
 20
-1803.268007547692
 30
0.0
 40
8.0
 41
0.0
 71
     7
 72
     5
  1
{\fＭＳ 明朝|b0|i0|c128|p17;\W1.0;目　皿}
  7
MTSTANDARD
 73
     1
 44
1.875000000000013
  0
MTEXT
  5
192
330
1F
100
AcDbEntity
  8
1
  6
Continuous
 62
     7
100
AcDbMText
 10
-582.1329124032259
 20
-1755.268007547695
 30
0.0
 40
8.0
 41
0.0
 71
     7
 72
     5
  1
{\fＭＳ 明朝|b0|i0|c128|p17;\W1.0;蓋}
  7
MTSTANDARD
 73
     1
 44
1.874999999999969
  0
MTEXT
  5
193
330
1F
100
AcDbEntity
  8
1
  6
Continuous
 62
     7
100
AcDbMText
 10
-605.4678733407065
 20
-1770.268007547694
 30
0.0
 40
6.0
 41
0.0
 71
     7
 72
     5
  1
{\fＭＳ 明朝|b0|i0|c128|p17;\W1.0;スリップワッシャー}
  7
MTSTANDARD4
 73
     1
 44
2.291666666666667
  0
MTEXT
  5
194
102
{ACAD_REACTORS
330
196
102
}
330
1F
100
AcDbEntity
  8
1
  6
Continuous
 62
     2
100
AcDbMText
 10
-308.4006623307538
 20
-1123.003361623841
 30
0.0
 40
8.0
 41
0.0
 71
     7
 72
     5
  1
{\fＭＳ ゴシック|b0|i0|c128|p49;\W1.0;ドライバー用切込}
  7
MTSTANDARD
 73
     1
 44
0.78125
  0
LEADER
  5
196
330
1F
100
AcDbEntity
  8
1
  6
ByBlock
 62
     3
100
AcDbLeader
  3
DIMSTYEX_5
 73
     0
 74
     0
 76
     3
 10
-366.4106053654474
 20
-1175.003361623832
 30
0.0
 10
-308.4006623307538
 20
-1123.003361623841
 30
0.0
 10
-307.4006623307538
 20
-1123.003361623841
 30
0.0
340
194
1001
ACAD
1000
DSTYLE
1002
{
1070
   176
1070
     0
1002
}
  0
LINE
  5
197
330
1F
100
AcDbEntity
  8
1
  6
Continuous
 62
     7
100
AcDbLine
 10
-370.9106053654506
 20
-1175.275222098596
 30
0.0
 11
-370.9106053654506
 21
-1176.353361623827
 31
0.0
  0
LINE
  5
198
330
1F
100
AcDbEntity
  8
1
  6
Continuous
 62
     7
100
AcDbLine
 10
-370.9106053654506
 20
-1176.353361623827
 30
0.0
 11
-361.9106053654506
 21
-1176.353361623827
 31
0.0
  0
LINE
  5
199
330
1F
100
AcDbEntity
  8
1
  6
Continuous
 62
     7
100
AcDbLine
 10
-361.9106053654506
 20
-1176.353361623827
 30
0.0
 11
-361.9106053654506
 21
-1175.275222098596
 31
0.0
  0
LINE
  5
19A
330
1F
100
AcDbEntity
  8
1
  6
Continuous
 62
     7
100
AcDbLine
 10
-370.9106053654506
 20
-1175.275222098596
 30
0.0
 11
-370.9106053654506
 21
-1176.353361623827
 31
0.0
  0
LINE
  5
19B
330
1F
100
AcDbEntity
  8
1
  6
Continuous
 62
     7
100
AcDbLine
 10
-370.9106053654506
 20
-1176.353361623827
 30
0.0
 11
-361.9106053654506
 21
-1176.353361623827
 31
0.0
  0
LINE
  5
19C
330
1F
100
AcDbEntity
  8
1
  6
Continuous
 62
     7
100
AcDbLine
 10
-361.9106053654506
 20
-1176.353361623827
 30
0.0
 11
-361.9106053654506
 21
-1175.275222098596
 31
0.0
  0
ARC
  5
19D
330
1F
100
AcDbEntity
  8
1
  6
Continuous
 62
     7
100
AcDbCircle
 10
-366.4106053654494
 20
-1235.503361623827
 30
0.0
 40
60.39999999999947
100
AcDbArc
 50
0.0000000000004314
 51
85.72731570845482
  0
ARC
  5
19E
330
1F
100
AcDbEntity
  8
1
  6
Continuous
 62
     7
100
AcDbCircle
 10
-366.4106053654494
 20
-1235.503361623827
 30
0.0
 40
60.39999999999947
100
AcDbArc
 50
94.27268429154748
 51
179.9999999999987
  0
ARC
  5
19F
330
1F
100
AcDbEntity
  8
1
  6
Continuous
 62
     7
100
AcDbCircle
 10
-366.4106053654535
 20
-1235.503361623826
 30
0.0
 40
60.4999999999946
100
AcDbArc
 50
359.9999999999996
 51
180.0
  0
ARC
  5
1A0
330
1F
100
AcDbEntity
  8
1
  6
Continuous
 62
     7
100
AcDbCircle
 10
-366.4106053654474
 20
-1235.503361623827
 30
0.0
 40
82.49999999999733
100
AcDbArc
 50
0.0000000000015791
 51
179.9999999999937
  0
ARC
  5
1A1
330
1F
100
AcDbEntity
  8
1
  6
Continuous
 62
     7
100
AcDbCircle
 10
-366.4106053654505
 20
-1235.503361623827
 30
0.0
 40
84.99999999992494
100
AcDbArc
 50
0.0000000000003065
 51
179.9999999999991
  0
ARC
  5
1A2
330
1F
100
AcDbEntity
  8
1
  6
Continuous
 62
     7
100
AcDbCircle
 10
-366.4106053654505
 20
-1235.503361623827
 30
0.0
 40
94.00000000000021
100
AcDbArc
 50
0.0
 51
179.9999999999994
  0
ARC
  5
1A3
330
1F
100
AcDbEntity
  8
1
  6
Continuous
 62
     7
100
AcDbCircle
 10
-366.4106053654474
 20
-1235.503361623828
 30
0.0
 40
82.49999999999733
100
AcDbArc
 50
180.0000000000063
 51
359.9999999999985
  0
ARC
  5
1A4
330
1F
100
AcDbEntity
  8
1
  6
Continuous
 62
     7
100
AcDbCircle
 10
-366.4106053654505
 20
-1235.503361623828
 30
0.0
 40
84.99999999992494
100
AcDbArc
 50
180.0000000000009
 51
359.9999999999997
  0
ARC
  5
1A5
330
1F
100
AcDbEntity
  8
1
  6
Continuous
 62
     7
100
AcDbCircle
 10
-366.4106053654505
 20
-1235.503361623828
 30
0.0
 40
94.00000000000021
100
AcDbArc
 50
180.0000000000006
 51
0.0
  0
ARC
  5
1A6
330
1F
100
AcDbEntity
  8
1
  6
Continuous
 62
     7
100
AcDbCircle
 10
-366.4106053654535
 20
-1235.503361623829
 30
0.0
 40
60.4999999999946
100
AcDbArc
 50
180.0
 51
0.0000000000004307
  0
ARC
  5
1A7
330
1F
100
AcDbEntity
  8
1
  6
Continuous
 62
     7
100
AcDbCircle
 10
-366.4106053654535
 20
-1235.503361623829
 30
0.0
 40
60.39999999999537
100
AcDbArc
 50
180.0
 51
0.0
  0
LINE
  5
1A8
330
1F
100
AcDbEntity
  8
1
  6
Continuous
 62
     7
100
AcDbLine
 10
-366.4106053654476
 20
-1464.958855655073
 30
0.0
 11
-460.4106053654476
 21
-1464.958855655069
 31
0.0
  0
LINE
  5
1A9
330
1F
100
AcDbEntity
  8
1
  6
Continuous
 62
     7
100
AcDbLine
 10
-426.8106053654477
 20
-1464.958855655073
 30
0.0
 11
-426.8106053654477
 21
-1468.658855655073
 31
0.0
  0
LINE
  5
1AA
330
1F
100
AcDbEntity
  8
1
  6
Continuous
 62
     7
100
AcDbLine
 10
-426.8106053654477
 20
-1468.658855655073
 30
0.0
 11
-423.4106053654476
 21
-1468.658855655073
 31
0.0
  0
LINE
  5
1AB
330
1F
100
AcDbEntity
  8
1
  6
Continuous
 62
     7
100
AcDbLine
 10
-423.4106053654476
 20
-1468.658855655073
 30
0.0
 11
-423.4106053654476
 21
-1469.658855655073
 31
0.0
  0
LINE
  5
1AC
330
1F
100
AcDbEntity
  8
1
  6
Continuous
 62
     7
100
AcDbLine
 10
-423.4106053654476
 20
-1469.658855655073
 30
0.0
 11
-421.4106053654476
 21
-1469.658855655073
 31
0.0
  0
LINE
  5
1AD
330
1F
100
AcDbEntity
  8
1
  6
Continuous
 62
     7
100
AcDbLine
 10
-421.4106053654476
 20
-1469.658855655073
 30
0.0
 11
-421.4106053654476
 21
-1473.458855655073
 31
0.0
  0
LINE
  5
1AE
330
1F
100
AcDbEntity
  8
1
  6
Continuous
 62
     7
100
AcDbLine
 10
-421.4106053654476
 20
-1473.458855655073
 30
0.0
 11
-423.4106053654476
 21
-1473.458855655073
 31
0.0
  0
LINE
  5
1AF
330
1F
100
AcDbEntity
  8
1
  6
Continuous
 62
     7
100
AcDbLine
 10
-423.4106053654476
 20
-1473.458855655073
 30
0.0
 11
-423.4106053654476
 21
-1475.458855655073
 31
0.0
  0
LINE
  5
1B0
330
1F
100
AcDbEntity
  8
1
  6
Continuous
 62
     7
100
AcDbLine
 10
-423.4106053654476
 20
-1475.458855655073
 30
0.0
 11
-366.4106053654476
 21
-1475.458855655073
 31
0.0
  0
LINE
  5
1B1
330
1F
100
AcDbEntity
  8
1
  6
Continuous
 62
     7
100
AcDbLine
 10
-417.9106053654476
 20
-1475.458855655072
 30
0.0
 11
-417.9106053654479
 21
-1468.458855655072
 31
0.0
  0
LINE
  5
1B2
330
1F
100
AcDbEntity
  8
1
  6
Continuous
 62
     7
100
AcDbLine
 10
-366.4106053654476
 20
-1468.458855655072
 30
0.0
 11
-417.9106053654479
 21
-1468.458855655072
 31
0.0
  0
LINE
  5
1B3
330
1F
100
AcDbEntity
  8
1
  6
Continuous
 62
     7
100
AcDbLine
 10
-448.9106053654476
 20
-1464.958855655069
 30
0.0
 11
-448.9106053654476
 21
-1465.958855655072
 31
0.0
  0
LINE
  5
1B4
330
1F
100
AcDbEntity
  8
1
  6
Continuous
 62
     7
100
AcDbLine
 10
-448.9106053654476
 20
-1465.958855655072
 30
0.0
 11
-441.4106053654476
 21
-1470.458855655072
 31
0.0
  0
LINE
  5
1B5
330
1F
100
AcDbEntity
  8
1
  6
Continuous
 62
     7
100
AcDbLine
 10
-441.4106053654476
 20
-1470.458855655072
 30
0.0
 11
-427.4106053654476
 21
-1470.458855655072
 31
0.0
  0
LINE
  5
1B6
330
1F
100
AcDbEntity
  8
1
  6
Continuous
 62
     7
100
AcDbLine
 10
-427.4106053654476
 20
-1470.458855655072
 30
0.0
 11
-427.4106053654476
 21
-1473.958855655073
 31
0.0
  0
LINE
  5
1B7
330
1F
100
AcDbEntity
  8
1
  6
Continuous
 62
     7
100
AcDbLine
 10
-427.4106053654476
 20
-1473.958855655073
 30
0.0
 11
-427.4106053654476
 21
-1482.958855655072
 31
0.0
  0
LINE
  5
1B8
330
1F
100
AcDbEntity
  8
1
  6
Continuous
 62
     7
100
AcDbLine
 10
-427.4106053654476
 20
-1473.958855655072
 30
0.0
 11
-428.8106053654477
 21
-1473.958855655072
 31
0.0
  0
LINE
  5
1B9
330
1F
100
AcDbEntity
  8
1
  6
Continuous
 62
     7
100
AcDbLine
 10
-428.8106053654477
 20
-1473.958855655072
 30
0.0
 11
-428.8106053654477
 21
-1482.958855655072
 31
0.0
  0
LINE
  5
1BA
330
1F
100
AcDbEntity
  8
1
  6
Continuous
 62
     7
100
AcDbLine
 10
-428.8106053654477
 20
-1482.958855655072
 30
0.0
 11
-366.4106053654476
 21
-1482.958855655072
 31
0.0
  0
LINE
  5
1BB
330
1F
100
AcDbEntity
  8
1
  6
Continuous
 62
     7
100
AcDbLine
 10
-426.9106053654474
 20
-1464.958855655069
 30
0.0
 11
-426.9106053654476
 21
-1468.958855655069
 31
0.0
  0
LINE
  5
1BC
330
1F
100
AcDbEntity
  8
1
  6
Continuous
 62
     7
100
AcDbLine
 10
-426.9106053654476
 20
-1468.958855655069
 30
0.0
 11
-425.1606053654476
 21
-1468.958855655069
 31
0.0
  0
LINE
  5
1BD
330
1F
100
AcDbEntity
  8
1
  6
Continuous
 62
     7
100
AcDbLine
 10
-424.1606053654476
 20
-1469.958855655069
 30
0.0
 11
-424.1606053654476
 21
-1470.958855655069
 31
0.0
  0
LINE
  5
1BE
330
1F
100
AcDbEntity
  8
1
  6
Continuous
 62
     7
100
AcDbLine
 10
-424.1606053654476
 20
-1470.958855655069
 30
0.0
 11
-425.1606053654476
 21
-1470.958855655069
 31
0.0
  0
LINE
  5
1BF
330
1F
100
AcDbEntity
  8
1
  6
Continuous
 62
     7
100
AcDbLine
 10
-425.1606053654476
 20
-1470.958855655069
 30
0.0
 11
-425.1606053654476
 21
-1471.958855655069
 31
0.0
  0
LINE
  5
1C0
330
1F
100
AcDbEntity
  8
1
  6
Continuous
 62
     7
100
AcDbLine
 10
-425.1606053654476
 20
-1471.958855655069
 30
0.0
 11
-424.1606053654476
 21
-1471.958855655069
 31
0.0
  0
LINE
  5
1C1
330
1F
100
AcDbEntity
  8
1
  6
Continuous
 62
     7
100
AcDbLine
 10
-424.1606053654476
 20
-1471.958855655069
 30
0.0
 11
-424.1606053654476
 21
-1480.458855655069
 31
0.0
  0
LINE
  5
1C2
330
1F
100
AcDbEntity
  8
1
  6
Continuous
 62
     7
100
AcDbLine
 10
-424.1606053654476
 20
-1480.458855655069
 30
0.0
 11
-366.4106053654476
 21
-1480.458855655069
 31
0.0
  0
LINE
  5
1C3
330
1F
100
AcDbEntity
  8
1
  6
Continuous
 62
     7
100
AcDbLine
 10
-420.9106053654476
 20
-1480.458855655069
 30
0.0
 11
-420.9106053654476
 21
-1482.958855655072
 31
0.0
  0
ARC
  5
1C4
330
1F
100
AcDbEntity
  8
1
  6
Continuous
 62
     7
100
AcDbCircle
 10
-425.1606053654476
 20
-1469.958855655069
 30
0.0
 40
1.0
100
AcDbArc
 50
0.0
 51
90.0
  0
LINE
  5
1C5
330
1F
100
AcDbEntity
  8
1
  6
Continuous
 62
     7
100
AcDbLine
 10
-366.4106053654476
 20
-1476.958855655069
 30
0.0
 11
-423.9106053654474
 21
-1476.958855655069
 31
0.0
  0
LINE
  5
1C6
330
1F
100
AcDbEntity
  8
1
  6
Continuous
 62
     7
100
AcDbLine
 10
-423.9106053654474
 20
-1476.958855655069
 30
0.0
 11
-423.9106053654476
 21
-1480.458855655069
 31
0.0
  0
LINE
  5
1C7
330
1F
100
AcDbEntity
  8
1
  6
Continuous
 62
     7
100
AcDbLine
 10
-419.9106053654474
 20
-1480.458855655069
 30
0.0
 11
-419.4106053654474
 21
-1476.958855655069
 31
0.0
  0
LINE
  5
1C8
330
1F
100
AcDbEntity
  8
1
  6
Continuous
 62
     7
100
AcDbLine
 10
-460.4106053654479
 20
-1464.958855655069
 30
0.0
 11
-459.4106053654476
 21
-1470.958855655069
 31
0.0
  0
LINE
  5
1C9
330
1F
100
AcDbEntity
  8
1
  6
Continuous
 62
     7
100
AcDbLine
 10
-459.4106053654476
 20
-1470.958855655069
 30
0.0
 11
-450.4106053654479
 21
-1470.958855655069
 31
0.0
  0
LINE
  5
1CA
330
1F
100
AcDbEntity
  8
1
  6
Continuous
 62
     7
100
AcDbLine
 10
-450.4106053654479
 20
-1470.958855655069
 30
0.0
 11
-441.9106053654479
 21
-1476.958855655069
 31
0.0
  0
LINE
  5
1CB
330
1F
100
AcDbEntity
  8
1
  6
Continuous
 62
     7
100
AcDbLine
 10
-441.9106053654479
 20
-1476.958855655069
 30
0.0
 11
-435.4106053654479
 21
-1476.958855655069
 31
0.0
  0
LINE
  5
1CC
330
1F
100
AcDbEntity
  8
1
  6
Continuous
 62
     7
100
AcDbLine
 10
-435.4106053654479
 20
-1476.958855655069
 30
0.0
 11
-435.4106053654479
 21
-1488.958855655068
 31
0.0
  0
LINE
  5
1CD
330
1F
100
AcDbEntity
  8
1
  6
Continuous
 62
     7
100
AcDbLine
 10
-432.4106053654476
 20
-1491.958855655068
 30
0.0
 11
-431.5176040697839
 21
-1516.069890637992
 31
0.0
  0
LINE
  5
1CE
330
1F
100
AcDbEntity
  8
1
  6
Continuous
 62
     7
100
AcDbLine
 10
-430.5210308405511
 20
-1518.958855655068
 30
0.0
 11
-421.4466053654477
 21
-1518.958855655068
 31
0.0
  0
LINE
  5
1CF
330
1F
100
AcDbEntity
  8
1
  6
Continuous
 62
     7
100
AcDbLine
 10
-451.4106053654476
 20
-1464.958855655026
 30
0.0
 11
-441.4106053654476
 21
-1470.958855655026
 31
0.0
  0
LINE
  5
1D0
330
1F
100
AcDbEntity
  8
1
  6
Continuous
 62
     7
100
AcDbLine
 10
-441.4106053654476
 20
-1470.958855655026
 30
0.0
 11
-427.9106053654474
 21
-1470.958855655026
 31
0.0
  0
LINE
  5
1D1
330
1F
100
AcDbEntity
  8
1
  6
Continuous
 62
     7
100
AcDbLine
 10
-434.441301507234
 20
-1491.167084171263
 30
0.0
 11
-433.5189753418516
 21
-1516.069890636598
 31
0.0
  0
LINE
  5
1D2
330
1F
100
AcDbEntity
  8
1
  6
Continuous
 62
     7
100
AcDbLine
 10
-422.2381053654477
 20
-1496.958855655068
 30
0.0
 11
-422.9256053654477
 21
-1518.958855655068
 31
0.0
  0
LINE
  5
1D3
330
1F
100
AcDbEntity
  8
1
  6
Continuous
 62
     7
100
AcDbLine
 10
-420.7591053654477
 20
-1496.958855655068
 30
0.0
 11
-421.4466053654477
 21
-1518.958855655068
 31
0.0
  0
LINE
  5
1D4
330
1F
100
AcDbEntity
  8
1
  6
Continuous
 62
     7
100
AcDbLine
 10
-426.4106053654278
 20
-1485.958855655121
 30
0.0
 11
-366.4106053654476
 21
-1485.958855654676
 31
0.0
  0
LINE
  5
1D5
330
1F
100
AcDbEntity
  8
1
  6
Continuous
 62
     7
100
AcDbLine
 10
-421.4106053654476
 20
-1485.958855655068
 30
0.0
 11
-421.4106053654476
 21
-1490.958855655068
 31
0.0
  0
LINE
  5
1D6
330
1F
100
AcDbEntity
  8
1
  6
Continuous
 62
     7
100
AcDbLine
 10
-366.4106053654476
 20
-1490.958855655068
 30
0.0
 11
-422.9106053654479
 21
-1490.958855655068
 31
0.0
  0
LINE
  5
1D7
330
1F
100
AcDbEntity
  8
1
  6
Continuous
 62
     7
100
AcDbLine
 10
-422.9106053654479
 20
-1490.958855655068
 30
0.0
 11
-422.9106053654479
 21
-1496.958855655068
 31
0.0
  0
LINE
  5
1D8
330
1F
100
AcDbEntity
  8
1
  6
Continuous
 62
     7
100
AcDbLine
 10
-422.9106053654479
 20
-1496.958855655068
 30
0.0
 11
-420.7591053654477
 21
-1496.958855655068
 31
0.0
  0
LINE
  5
1D9
330
1F
100
AcDbEntity
  8
1
  6
Continuous
 62
     7
100
AcDbLine
 10
-427.9106053654474
 20
-1470.958855655026
 30
0.0
 11
-427.9106053654474
 21
-1485.556931867876
 31
0.0
  0
LINE
  5
1DA
330
1F
100
AcDbEntity
  8
1
  6
Continuous
 62
     7
100
AcDbLine
 10
-429.4106053654476
 20
-1482.958855656523
 30
0.0
 11
-429.4106053654476
 21
-1470.958855655025
 31
0.0
  0
ARC
  5
1DB
330
1F
100
AcDbEntity
  8
1
  6
Continuous
 62
     7
100
AcDbCircle
 10
-432.4106053654479
 20
-1488.958855655068
 30
0.0
 40
3.0
100
AcDbArc
 50
180.0
 51
270.0
  0
ARC
  5
1DC
330
1F
100
AcDbEntity
  8
1
  6
Continuous
 62
     7
100
AcDbCircle
 10
-428.5196595685658
 20
-1515.958855656465
 30
0.0
 40
3.0
100
AcDbArc
 50
182.1210963966634
 51
270.0
  0
ARC
  5
1DD
330
1F
100
AcDbEntity
  8
1
  6
Continuous
 62
     7
100
AcDbCircle
 10
-426.4106053654476
 20
-1482.958855656523
 30
0.0
 40
3.0
100
AcDbArc
 50
180.0
 51
240.0000000000021
  0
ARC
  5
1DE
330
1F
100
AcDbEntity
  8
1
  6
Continuous
 62
     7
100
AcDbCircle
 10
-426.4106053654476
 20
-1482.958855656523
 30
0.0
 40
3.0
100
AcDbArc
 50
240.0000000000021
 51
270.0000000003778
  0
ARC
  5
1DF
330
1F
100
AcDbEntity
  8
1
  6
Continuous
 62
     7
100
AcDbCircle
 10
-430.5210308405511
 20
-1515.958855655068
 30
0.0
 40
3.0
100
AcDbArc
 50
182.1210963966573
 51
270.0
  0
LINE
  5
1E0
330
1F
100
AcDbEntity
  8
1
  6
Continuous
 62
     7
100
AcDbLine
 10
-441.4106053654476
 20
-1470.958855655026
 30
0.0
 11
-428.9106053654476
 21
-1470.958855655026
 31
0.0
  0
LINE
  5
1E1
330
1F
100
AcDbEntity
  8
1
  6
Continuous
 62
     7
100
AcDbLine
 10
-428.9106053654476
 20
-1470.958855655026
 30
0.0
 11
-428.9106053654476
 21
-1470.458855655025
 31
0.0
  0
LINE
  5
1E2
330
1F
100
AcDbEntity
  8
1
  6
Continuous
 62
     7
100
AcDbLine
 10
-428.9106053654476
 20
-1470.458855655025
 30
0.0
 11
-441.4106053654476
 21
-1470.458855655025
 31
0.0
  0
LINE
  5
1E3
330
1F
100
AcDbEntity
  8
1
  6
Continuous
 62
     7
100
AcDbLine
 10
-441.4106053654476
 20
-1470.458855655025
 30
0.0
 11
-441.4106053654476
 21
-1470.958855655026
 31
0.0
  0
HATCH
  5
1E4
330
1F
100
AcDbEntity
  8
2
  6
Continuous
 62
     7
100
AcDbHatch
 10
0.0
 20
0.0
 30
0.0
210
0.0
220
0.0
230
1.0
  2
_U
 70
     0
 71
     0
 91
        1
 92
        0
 93
       12
 72
     1
 10
-366.4106053654476
 20
-1464.958855655073
 11
-426.8106053654477
 21
-1464.958855655026
 72
     1
 10
-426.8106053654477
 20
-1464.958855655073
 11
-426.8106053654477
 21
-1468.658855655073
 72
     1
 10
-426.8106053654477
 20
-1468.658855655073
 11
-423.4106053654476
 21
-1468.658855655073
 72
     1
 10
-423.4106053654476
 20
-1468.658855655073
 11
-423.4106053654476
 21
-1469.658855655073
 72
     1
 10
-423.4106053654476
 20
-1469.658855655073
 11
-421.4106053654476
 21
-1469.658855655073
 72
     1
 10
-421.4106053654476
 20
-1469.658855655073
 11
-421.4106053654476
 21
-1473.458855655073
 72
     1
 10
-421.4106053654476
 20
-1473.458855655073
 11
-423.4106053654476
 21
-1473.458855655073
 72
     1
 10
-423.4106053654476
 20
-1473.458855655073
 11
-423.4106053654476
 21
-1475.458855655073
 72
     1
 10
-423.4106053654476
 20
-1475.458855655073
 11
-417.9106053654517
 21
-1475.458855655072
 72
     1
 10
-417.9106053654476
 20
-1475.458855655072
 11
-417.9106053654479
 21
-1468.458855655072
 72
     1
 10
-417.9106053654479
 20
-1468.458855655072
 11
-366.4106053654476
 21
-1468.458855655072
 72
     1
 10
-366.4106053654476
 20
-1468.458855655072
 11
-366.4106053654476
 21
-1464.958855655026
 97
        0
 75
     0
 76
     0
 52
45.00000000014619
 41
4.0
 77
     0
 78
     1
 53
45.00000000014619
 43
0.0
 44
0.0
 45
-2.828427124753407
 46
2.828427124738973
 79
     0
 98
        1
 10
0.0
 20
0.0
  0
HATCH
  5
1E5
330
1F
100
AcDbEntity
  8
2
  6
Continuous
 62
     7
100
AcDbHatch
 10
0.0
 20
0.0
 30
0.0
210
0.0
220
0.0
230
1.0
  2
_U
 70
     0
 71
     0
 91
        2
 92
        0
 93
       20
 72
     1
 10
-426.9106053654408
 20
-1464.958855655026
 11
-448.9106053654476
 21
-1464.958855655026
 72
     1
 10
-448.9106053654476
 20
-1464.958855655069
 11
-448.9106053654476
 21
-1465.958855655072
 72
     1
 10
-448.9106053654476
 20
-1465.958855655072
 11
-441.4106053654476
 21
-1470.458855655072
 72
     1
 10
-441.4106053654476
 20
-1470.458855655025
 11
-428.9106053654476
 21
-1470.458855655025
 72
     1
 10
-428.9106053654476
 20
-1470.458855655025
 11
-428.9106053654476
 21
-1470.958855655026
 72
     1
 10
-428.9106053654476
 20
-1470.958855655025
 11
-427.9106053654474
 21
-1470.958855655026
 72
     1
 10
-427.9106053654474
 20
-1470.958855655026
 11
-427.9106053654474
 21
-1473.958855655072
 72
     1
 10
-427.9106053654474
 20
-1473.958855655072
 11
-427.4106053654476
 21
-1473.958855655072
 72
     1
 10
-427.4106053654476
 20
-1473.958855655073
 11
-427.4106053654476
 21
-1482.958855655072
 72
     1
 10
-427.4106053654474
 20
-1482.958855655072
 11
-420.9106053654476
 21
-1482.958855655072
 72
     1
 10
-420.9106053654476
 20
-1482.958855655072
 11
-420.9106053654476
 21
-1480.458855655069
 72
     1
 10
-420.9106053654476
 20
-1480.458855655069
 11
-424.1606053654476
 21
-1480.458855655069
 72
     1
 10
-424.1606053654476
 20
-1480.458855655069
 11
-424.1606053654476
 21
-1471.958855655069
 72
     1
 10
-424.1606053654476
 20
-1471.958855655069
 11
-425.1606053654476
 21
-1471.958855655069
 72
     1
 10
-425.1606053654476
 20
-1471.958855655069
 11
-425.1606053654476
 21
-1470.958855655069
 72
     1
 10
-425.1606053654476
 20
-1470.958855655069
 11
-424.1606053654476
 21
-1470.958855655069
 72
     1
 10
-424.1606053654476
 20
-1470.958855655069
 11
-424.1606053654476
 21
-1469.958855655069
 72
     2
 10
-425.1606053654476
 20
-1469.958855655069
 40
1.0
 50
0.0
 51
90.0
 73
     1
 72
     1
 10
-425.1606053654476
 20
-1468.958855655069
 11
-426.9106053654476
 21
-1468.958855655069
 72
     1
 10
-426.9106053654476
 20
-1468.958855655069
 11
-426.9106053654474
 21
-1464.958855655069
 97
        0
 92
        0
 93
        4
 72
     1
 10
-427.9106053654474
 20
-1473.958855655072
 11
-428.8106053654477
 21
-1473.958855655072
 72
     1
 10
-428.8106053654477
 20
-1473.958855655072
 11
-428.8106053654477
 21
-1482.958855655072
 72
     1
 10
-428.8106053654477
 20
-1482.958855655072
 11
-427.9106053654474
 21
-1482.958855655072
 72
     1
 10
-427.9106053654474
 20
-1482.958855655072
 11
-427.9106053654474
 21
-1473.958855655072
 97
        0
 75
     0
 76
     0
 52
315.0
 41
4.0
 77
     0
 78
     1
 53
315.0
 43
0.0
 44
0.0
 45
2.828427124746191
 46
2.828427124746189
 79
     0
 98
        1
 10
0.0
 20
0.0
  0
HATCH
  5
1E6
330
1F
100
AcDbEntity
  8
2
  6
Continuous
 62
     7
100
AcDbHatch
 10
0.0
 20
0.0
 30
0.0
210
0.0
220
0.0
230
1.0
  2
_U
 70
     0
 71
     0
 91
        5
 92
        0
 93
        8
 72
     1
 10
-427.9106053654474
 20
-1470.958855655026
 11
-429.4106053654476
 21
-1470.958855655025
 72
     1
 10
-429.4106053654476
 20
-1470.958855655025
 11
-429.4106053654476
 21
-1482.958855656523
 72
     2
 10
-426.4106053654476
 20
-1482.958855656523
 40
3.0
 50
180.0
 51
240.0000000000021
 73
     1
 72
     1
 10
-427.9106053654474
 20
-1485.556931867876
 11
-427.9106053654474
 21
-1482.958855655072
 72
     1
 10
-427.9106053654474
 20
-1482.958855655072
 11
-428.8106053654477
 21
-1482.958855655072
 72
     1
 10
-428.8106053654477
 20
-1482.958855655072
 11
-428.8106053654477
 21
-1473.958855655072
 72
     1
 10
-428.8106053654477
 20
-1473.958855655072
 11
-427.9106053654474
 21
-1473.958855655072
 72
     1
 10
-427.9106053654474
 20
-1473.958855655072
 11
-427.9106053654474
 21
-1470.958855655026
 97
        0
 92
        0
 93
        4
 72
     1
 10
-427.9106053654474
 20
-1473.958855655072
 11
-428.8106053654477
 21
-1473.958855655072
 72
     1
 10
-428.8106053654477
 20
-1473.958855655072
 11
-428.8106053654477
 21
-1482.958855655072
 72
     1
 10
-428.8106053654477
 20
-1482.958855655072
 11
-427.9106053654474
 21
-1482.958855655072
 72
     1
 10
-427.9106053654474
 20
-1482.958855655072
 11
-427.9106053654474
 21
-1473.958855655072
 97
        0
 92
        0
 93
        4
 72
     1
 10
-420.7591053654479
 20
-1496.958855655068
 11
-422.2381053654477
 21
-1496.958855655068
 72
     1
 10
-422.2381053654477
 20
-1496.958855655068
 11
-422.9256053654477
 21
-1518.958855655068
 72
     1
 10
-422.9256053654477
 20
-1518.958855655068
 11
-421.4466053654477
 21
-1518.958855655068
 72
     1
 10
-421.4466053654477
 20
-1518.958855655068
 11
-420.7591053654477
 21
-1496.958855655068
 97
        0
 92
        0
 93
        7
 72
     1
 10
-422.2381053654477
 20
-1496.958855655068
 11
-422.9106053654479
 21
-1496.958855655068
 72
     1
 10
-422.9106053654479
 20
-1496.958855655068
 11
-422.9106053654479
 21
-1491.958855655068
 72
     1
 10
-422.9106053654479
 20
-1491.958855655068
 11
-432.4106053654479
 21
-1491.958855655068
 72
     1
 10
-432.4106053654476
 20
-1491.958855655068
 11
-431.5176040697839
 21
-1516.069890637992
 72
     2
 10
-428.5196595685658
 20
-1515.958855656465
 40
3.0
 50
182.1210963966634
 51
270.0
 73
     1
 72
     1
 10
-428.5196595685658
 20
-1518.958855655068
 11
-422.9256053654477
 21
-1518.958855655068
 72
     1
 10
-422.9256053654477
 20
-1518.958855655068
 11
-422.2381053654477
 21
-1496.958855655068
 97
        0
 92
        0
 93
       17
 72
     1
 10
-460.4106053654476
 20
-1464.958855655069
 11
-451.4106053654476
 21
-1464.958855655069
 72
     1
 10
-451.4106053654476
 20
-1464.958855655026
 11
-441.4106053654476
 21
-1470.958855655026
 72
     1
 10
-441.4106053654476
 20
-1470.958855655026
 11
-429.4106053654476
 21
-1470.958855655026
 72
     1
 10
-429.4106053654476
 20
-1470.958855655025
 11
-429.4106053654476
 21
-1482.958855656523
 72
     2
 10
-426.4106053654476
 20
-1482.958855656523
 40
3.0
 50
180.0
 51
240.0000000000021
 73
     1
 72
     2
 10
-426.4106053654476
 20
-1482.958855656523
 40
3.0
 50
240.0000000000021
 51
270.0000000003778
 73
     1
 72
     1
 10
-426.4106053654278
 20
-1485.958855655121
 11
-421.4106053654476
 21
-1485.958855655068
 72
     1
 10
-421.4106053654476
 20
-1485.958855655068
 11
-421.4106053654476
 21
-1490.958855655068
 72
     1
 10
-421.4106053654476
 20
-1490.958855655068
 11
-422.9106053654479
 21
-1490.958855655068
 72
     1
 10
-422.9106053654479
 20
-1490.958855655068
 11
-422.9106053654479
 21
-1491.958855655068
 72
     1
 10
-422.9106053654479
 20
-1491.958855655068
 11
-432.4106053654479
 21
-1491.958855655068
 72
     2
 10
-432.4106053654479
 20
-1488.958855655068
 40
3.0
 50
90.0
 51
180.0
 73
     0
 72
     1
 10
-435.4106053654479
 20
-1488.958855655068
 11
-435.4106053654479
 21
-1476.958855655069
 72
     1
 10
-435.4106053654479
 20
-1476.958855655069
 11
-441.9106053654479
 21
-1476.958855655069
 72
     1
 10
-441.9106053654479
 20
-1476.958855655069
 11
-450.4106053654479
 21
-1470.958855655069
 72
     1
 10
-450.4106053654479
 20
-1470.958855655069
 11
-459.4106053654476
 21
-1470.958855655069
 72
     1
 10
-459.4106053654476
 20
-1470.958855655069
 11
-460.4106053654479
 21
-1464.958855655069
 97
        0
 75
     0
 76
     0
 52
45.00000000014619
 41
4.0
 77
     0
 78
     1
 53
45.00000000014619
 43
0.0
 44
0.0
 45
-2.828427124753407
 46
2.828427124738973
 79
     0
 98
        1
 10
0.0
 20
0.0
  0
HATCH
  5
1E7
330
1F
100
AcDbEntity
  8
2
  6
Continuous
 62
     7
100
AcDbHatch
 10
0.0
 20
0.0
 30
0.0
210
0.0
220
0.0
230
1.0
  2
_U
 70
     0
 71
     0
 91
        1
 92
        0
 93
        4
 72
     1
 10
-419.4106053654474
 20
-1476.958855655069
 11
-423.9106053654474
 21
-1476.958855655069
 72
     1
 10
-423.9106053654474
 20
-1476.958855655069
 11
-423.9106053654476
 21
-1480.458855655069
 72
     1
 10
-423.9106053654392
 20
-1480.458855655069
 11
-419.9106053654474
 21
-1480.458855655069
 72
     1
 10
-419.9106053654474
 20
-1480.458855655069
 11
-419.4106053654474
 21
-1476.958855655069
 97
        0
 75
     0
 76
     0
 52
45.0
 41
2.0
 77
     0
 78
     1
 53
45.0
 43
0.0
 44
0.0
 45
-1.414213562373095
 46
1.414213562373095
 79
     0
 98
        1
 10
0.0
 20
0.0
  0
CIRCLE
  5
1E8
330
1F
100
AcDbEntity
  8
1
  6
Continuous
 62
     7
100
AcDbCircle
 10
-422.7879963191407
 20
-1472.060127019861
 30
0.0
 40
1.4
  0
HATCH
  5
1E9
330
1F
100
AcDbEntity
  8
2
  6
Continuous
 62
     7
100
AcDbHatch
 10
0.0
 20
0.0
 30
0.0
210
0.0
220
0.0
230
1.0
  2
_U
 70
     0
 71
     0
 91
        1
 92
        0
 93
        2
 72
     1
 10
-421.4079711236258
 20
-1472.295776037989
 11
-421.4079711236258
 21
-1471.824478001733
 72
     2
 10
-422.7879963191407
 20
-1472.060127019861
 40
1.4
 50
9.690196924516744
 51
350.3098030754833
 73
     1
 97
        0
 75
     0
 76
     0
 52
45.0
 41
2.0
 77
     1
 78
     2
 53
45.0
 43
0.0
 44
0.0
 45
-1.414213562373095
 46
1.414213562373095
 79
     0
 53
135.0
 43
0.0
 44
0.0
 45
-1.414213562373095
 46
-1.414213562373095
 79
     0
 98
        1
 10
0.0
 20
0.0
  0
LINE
  5
1EA
330
1F
100
AcDbEntity
  8
1
  6
Continuous
 62
     7
100
AcDbLine
 10
-366.4106053654469
 20
-1464.958855655073
 30
0.0
 11
-272.4106053654469
 21
-1464.958855655074
 31
0.0
  0
LINE
  5
1EB
330
1F
100
AcDbEntity
  8
1
  6
Continuous
 62
     7
100
AcDbLine
 10
-272.4106053654467
 20
-1464.958855655074
 30
0.0
 11
-273.4106053654474
 21
-1470.958855655074
 31
0.0
  0
LINE
  5
1EC
330
1F
100
AcDbEntity
  8
1
  6
Continuous
 62
     7
100
AcDbLine
 10
-273.4106053654474
 20
-1470.958855655074
 30
0.0
 11
-366.4106053654476
 21
-1470.958855655005
 31
0.0
  0
LINE
  5
1ED
330
1F
100
AcDbEntity
  8
1
  6
Continuous
 62
     7
100
AcDbLine
 10
-282.4106053654472
 20
-1470.958855655074
 30
0.0
 11
-290.9106053654474
 21
-1476.958855655073
 31
0.0
  0
LINE
  5
1EE
330
1F
100
AcDbEntity
  8
1
  6
Continuous
 62
     7
100
AcDbLine
 10
-290.9106053654474
 20
-1476.958855655073
 30
0.0
 11
-366.4106053654476
 21
-1476.958855654992
 31
0.0
  0
LINE
  5
1EF
330
1F
100
AcDbEntity
  8
1
  6
Continuous
 62
     7
100
AcDbLine
 10
-297.4106053654474
 20
-1476.958855655073
 30
0.0
 11
-297.4106053654483
 21
-1488.958855655073
 31
0.0
  0
LINE
  5
1F0
330
1F
100
AcDbEntity
  8
1
  6
Continuous
 62
     7
100
AcDbLine
 10
-300.4106053654483
 20
-1491.958855655073
 30
0.0
 11
-366.4106053654476
 21
-1491.958855654977
 31
0.0
  0
LINE
  5
1F1
330
1F
100
AcDbEntity
  8
1
  6
Continuous
 62
     7
100
AcDbLine
 10
-300.4106053654485
 20
-1491.958855655073
 30
0.0
 11
-301.3036066611138
 21
-1516.069890637995
 31
0.0
  0
LINE
  5
1F2
330
1F
100
AcDbEntity
  8
1
  6
Continuous
 62
     7
100
AcDbLine
 10
-304.3015511623322
 20
-1518.958855655073
 30
0.0
 11
-366.4106053654504
 21
-1518.958855655068
 31
0.0
  0
ARC
  5
1F3
330
1F
100
AcDbEntity
  8
1
  6
Continuous
 62
     7
100
AcDbCircle
 10
-300.4106053654483
 20
-1488.958855655073
 30
0.0
 40
3.0
100
AcDbArc
 50
270.0
 51
359.9999999999913
  0
ARC
  5
1F4
330
1F
100
AcDbEntity
  8
1
  6
Continuous
 62
     7
100
AcDbCircle
 10
-304.301551162332
 20
-1515.958855656469
 30
0.0
 40
3.0
100
AcDbArc
 50
269.9999999999956
 51
357.8789036033366
  0
DIMENSION
  5
201
330
1F
100
AcDbEntity
  8
1
  6
ByBlock
 62
     3
100
AcDbDimension
  2
_D1
 10
-448.9106053654476
 20
-1424.735390261254
 30
0.0
 11
-366.4106053654476
 21
-1420.735390261254
 31
0.0
 70
   160
  1
φ<>
 71
     5
 42
-1.0
 52
90.0
  3
DIMSTYEX_6
100
AcDbAlignedDimension
 13
-283.9106053654476
 23
-1464.958855655073
 33
0.0
 14
-448.9106053654476
 24
-1464.958855655069
 34
0.0
100
AcDbRotatedDimension
1001
ACAD
1000
DSTYLE
1002
{
1070
   343
1005
AE
1070
   344
1005
88
1070
    43
1040
14.0
1070
   173
1070
     1
1070
   281
1070
     1
1070
    75
1070
     1
1070
    77
1070
     1
1070
   272
1070
     3
1070
   340
1005
83
1070
   140
1040
3.584
1002
}
  0
DIMENSION
  5
20F
330
1F
100
AcDbEntity
  8
1
  6
ByBlock
 62
     3
100
AcDbDimension
  2
_D2
 10
-272.4106053654424
 20
-1410.735390261254
 30
0.0
 11
-366.4106053654486
 21
-1406.735390261254
 31
0.0
 70
   160
  1
φ<>
 71
     5
 42
-1.0
 52
90.0
  3
DIMSTYEX_7
100
AcDbAlignedDimension
 13
-460.4106053654549
 23
-1464.958855655026
 33
0.0
 14
-272.4106053654424
 24
-1464.958855655048
 34
0.0
100
AcDbRotatedDimension
1001
ACAD
1000
DSTYLE
1002
{
1070
   343
1005
88
1070
   344
1005
88
1070
   173
1070
     1
1070
   272
1070
     3
1070
   340
1005
83
1070
   140
1040
3.584
1002
}
  0
LINE
  5
210
330
1F
100
AcDbEntity
  8
1
  6
Continuous
 62
     7
100
AcDbLine
 10
-337.7885388702613
 20
-1492.895498872611
 30
0.0
 11
-336.8282296589624
 21
-1518.022212436973
 31
0.0
  0
LINE
  5
211
330
1F
100
AcDbEntity
  8
1
  6
Continuous
 62
     7
100
AcDbLine
 10
-335.8602322664202
 20
-1492.897473957546
 30
0.0
 11
-334.9302177180274
 21
-1518.020237352036
 31
0.0
  0
LINE
  5
212
330
1F
100
AcDbEntity
  8
1
  6
Continuous
 62
     7
100
AcDbLine
 10
-329.042400753471
 20
-1492.903189702271
 30
0.0
 11
-329.8848937633635
 21
-1518.014521607308
 31
0.0
  0
ARC
  5
213
330
1F
100
AcDbEntity
  8
1
  6
Continuous
 62
     7
100
AcDbCircle
 10
-338.7865298111907
 20
-1492.958855654593
 30
0.0
 40
1.0
100
AcDbArc
 50
3.632509178905154
 51
90.0
  0
ARC
  5
214
330
1F
100
AcDbEntity
  8
1
  6
Continuous
 62
     7
100
AcDbCircle
 10
-336.8583466322458
 20
-1492.958855654593
 30
0.0
 40
1.0
100
AcDbArc
 50
3.51912438543268
 51
90.0
  0
ARC
  5
215
330
1F
100
AcDbEntity
  8
1
  6
Continuous
 62
     7
100
AcDbCircle
 10
-328.0439513046996
 20
-1492.958855654593
 30
0.0
 40
1.0
100
AcDbArc
 50
90.0
 51
176.808926391133
  0
ARC
  5
216
330
1F
100
AcDbEntity
  8
1
  6
Continuous
 62
     7
100
AcDbCircle
 10
-333.9321033522018
 20
-1517.958855654989
 30
0.0
 40
1.0
100
AcDbArc
 50
183.5191243854067
 51
270.0
  0
ARC
  5
217
330
1F
100
AcDbEntity
  8
1
  6
Continuous
 62
     7
100
AcDbCircle
 10
-335.830238718033
 20
-1517.958855654992
 30
0.0
 40
1.0
100
AcDbArc
 50
183.6325091788792
 51
270.0
  0
ARC
  5
218
330
1F
100
AcDbEntity
  8
1
  6
Continuous
 62
     7
100
AcDbCircle
 10
-330.8833432121352
 20
-1517.958855654986
 30
0.0
 40
1.0
100
AcDbArc
 50
270.0
 51
356.8089263911337
  0
INSERT
  5
220
330
1F
100
AcDbEntity
  8
1
  6
ByBlock
 62
     3
100
AcDbBlockReference
  2
BALN3
 10
-415.4853359052887
 20
-1480.458855655069
 30
0.0
  0
INSERT
  5
228
330
1F
100
AcDbEntity
  8
1
  6
ByBlock
 62
     3
100
AcDbBlockReference
  2
BALN4
 10
-446.1606053654479
 20
-1473.958855655069
 30
0.0
  0
INSERT
  5
230
330
1F
100
AcDbEntity
  8
1
  6
ByBlock
 62
     3
100
AcDbBlockReference
  2
BALN5
 10
-436.647206532358
 20
-1470.458855655072
 30
0.0
  0
INSERT
  5
238
330
1F
100
AcDbEntity
  8
1
  6
ByBlock
 62
     3
100
AcDbBlockReference
  2
BALN6
 10
-434.3867577534253
 20
-1464.958855655071
 30
0.0
  0
INSERT
  5
240
330
1F
100
AcDbEntity
  8
1
  6
ByBlock
 62
     3
100
AcDbBlockReference
  2
BALN7
 10
-422.7879963191407
 20
-1470.660127019861
 30
0.0
  0
INSERT
  5
248
330
1F
100
AcDbEntity
  8
1
  6
ByBlock
 62
     3
100
AcDbBlockReference
  2
BALN8
 10
-402.9668783051702
 20
-1464.958855655071
 30
0.0
  0
DIMENSION
  5
254
330
1F
100
AcDbEntity
  8
1
  6
ByBlock
 62
     3
100
AcDbDimension
  2
_D3
 10
-426.9106053654551
 20
-1438.735390261254
 30
0.0
 11
-366.4106053654476
 21
-1434.735390261254
 31
0.0
 70
   160
  1
φ<>
 71
     5
 42
-1.0
 52
90.0
  3
DIMSTYEX_14
100
AcDbAlignedDimension
 13
-305.9106053654401
 23
-1464.958855655026
 33
0.0
 14
-426.9106053654551
 24
-1464.958855655071
 34
0.0
100
AcDbRotatedDimension
1001
ACAD
1000
DSTYLE
1002
{
1070
   343
1005
AE
1070
   344
1005
88
1070
   173
1070
     1
1070
   281
1070
     1
1070
    75
1070
     1
1070
    77
1070
     1
1070
   272
1070
     3
1070
   340
1005
83
1070
   140
1040
3.584
1002
}
  0
MTEXT
  5
255
330
1F
100
AcDbEntity
  8
1
  6
Continuous
 62
     7
100
AcDbMText
 10
-351.9330793905305
 20
-1788.691360906724
 30
0.0
 40
8.0
 41
0.0
 71
     7
 72
     5
  1
{\fＭＳ 明朝|b0|i0|c128|p17;\W1.0;●共栓の開閉はドライバー（7ｘ125）で容易にできます。\P●非防水層用\P●流出口は管用テーパーねじ。}
  7
MTSTANDARD
 73
     1
 44
0.9375
  0
MTEXT
  5
256
330
1F
100
AcDbEntity
  8
1
  6
Continuous
 62
     7
100
AcDbMText
 10
-624.1778342782004
 20
-1691.174250304951
 30
0.0
 40
8.0
 41
0.0
 71
     7
 72
     5
  1
{\fＭＳ 明朝|b0|i0|c128|p17;\W1.0;●部品表}
  7
MTSTANDARD
 73
     1
 44
1.203125
  0
MTEXT
  5
257
330
1F
100
AcDbEntity
  8
1
  6
Continuous
 62
     7
100
AcDbMText
 10
-430.6778342783492
 20
-1778.768007547694
 30
0.0
 40
7.0
 41
0.0
 71
     7
 72
     5
  1
{\fＭＳ 明朝|b0|i0|c128|p17;\W1.0;－}
  7
MTSTANDARD1
 73
     1
 44
1.741071428571429
  0
MTEXT
  5
258
330
1F
100
AcDbEntity
  8
1
  6
Continuous
 62
     7
100
AcDbMText
 10
-430.6778342783492
 20
-1834.768007547694
 30
0.0
 40
7.0
 41
0.0
 71
     7
 72
     5
  1
{\fＭＳ 明朝|b0|i0|c128|p17;\W1.0;－}
  7
MTSTANDARD1
 73
     1
 44
1.026785714285653
  0
MTEXT
  5
259
330
1F
100
AcDbEntity
  8
1
  6
Continuous
 62
     7
100
AcDbMText
 10
-159.6626183413896
 20
-1846.991641020337
 30
0.0
 40
8.0
 41
0.0
 71
     7
 72
     5
  1
{\fＭＳ 明朝|b0|i0|c128|p17;\W1.0;掃兼型}
  7
MTSTANDARD
 73
     1
 44
1.640624999999982
  0
DIMENSION
  5
267
330
1F
100
AcDbEntity
  8
1
  6
ByBlock
 62
     3
100
AcDbDimension
  2
_D4
 10
-495.2839474499739
 20
-1518.958855655068
 30
0.0
 11
-499.2839474499739
 21
-1491.958855655069
 31
0.0
 70
   160
 71
     5
 42
-1.0
 52
90.0
  3
DIMSTYEX_15
100
AcDbAlignedDimension
 13
-460.4106053654479
 23
-1464.958855655069
 33
0.0
 14
-430.5210308405511
 24
-1518.958855655068
 34
0.0
 50
-90.0
100
AcDbRotatedDimension
1001
ACAD
1000
DSTYLE
1002
{
1070
   343
1005
88
1070
   344
1005
88
1070
    43
1040
0.939504122335336
1070
   173
1070
     1
1070
   272
1070
     3
1070
   340
1005
83
1070
   140
1040
3.584
1002
}
  0
MTEXT
  5
268
330
1F
100
AcDbEntity
  8
1
  6
Continuous
 62
     7
100
AcDbMText
 10
-390.8445009448737
 20
-1707.268007547695
 30
0.0
 40
8.0
 41
0.0
 71
     7
 72
     5
  1
{\fＭＳ 明朝|b0|i0|c128|p17;\W1.0;数量}
  7
MTSTANDARD
 73
     1
 44
0.9375
  0
MTEXT
  5
269
330
1F
100
AcDbEntity
  8
1
  6
Continuous
 62
     7
100
AcDbMText
 10
-384.8445009448737
 20
-1723.268007547695
 30
0.0
 40
8.0
 41
0.0
 71
     7
 72
     5
  1
{\fＭＳ 明朝|b0|i0|c128|p17;\W1.0;1}
  7
MTSTANDARD
 73
     1
 44
0.9375
  0
MTEXT
  5
26A
330
1F
100
AcDbEntity
  8
1
  6
Continuous
 62
     7
100
AcDbMText
 10
-384.8445009448737
 20
-1739.268007547695
 30
0.0
 40
8.0
 41
0.0
 71
     7
 72
     5
  1
{\fＭＳ 明朝|b0|i0|c128|p17;\W1.0;1}
  7
MTSTANDARD
 73
     1
 44
0.9375
  0
MTEXT
  5
26B
330
1F
100
AcDbEntity
  8
1
  6
Continuous
 62
     7
100
AcDbMText
 10
-384.8445009448737
 20
-1755.268007547695
 30
0.0
 40
8.0
 41
0.0
 71
     7
 72
     5
  1
{\fＭＳ 明朝|b0|i0|c128|p17;\W1.0;1}
  7
MTSTANDARD
 73
     1
 44
0.9375
  0
MTEXT
  5
26C
330
1F
100
AcDbEntity
  8
1
  6
Continuous
 62
     7
100
AcDbMText
 10
-384.8445009448737
 20
-1771.268007547695
 30
0.0
 40
8.0
 41
0.0
 71
     7
 72
     5
  1
{\fＭＳ 明朝|b0|i0|c128|p17;\W1.0;1}
  7
MTSTANDARD
 73
     1
 44
0.9375
  0
MTEXT
  5
26D
330
1F
100
AcDbEntity
  8
1
  6
Continuous
 62
     7
100
AcDbMText
 10
-384.8445009448737
 20
-1787.268007547695
 30
0.0
 40
8.0
 41
0.0
 71
     7
 72
     5
  1
{\fＭＳ 明朝|b0|i0|c128|p17;\W1.0;1}
  7
MTSTANDARD
 73
     1
 44
0.9375
  0
MTEXT
  5
26E
330
1F
100
AcDbEntity
  8
1
  6
Continuous
 62
     7
100
AcDbMText
 10
-384.8445009448737
 20
-1803.268007547695
 30
0.0
 40
8.0
 41
0.0
 71
     7
 72
     5
  1
{\fＭＳ 明朝|b0|i0|c128|p17;\W1.0;1}
  7
MTSTANDARD
 73
     1
 44
0.9375
  0
MTEXT
  5
26F
330
1F
100
AcDbEntity
  8
1
  6
Continuous
 62
     7
100
AcDbMText
 10
-384.8445009448737
 20
-1819.268007547695
 30
0.0
 40
8.0
 41
0.0
 71
     7
 72
     5
  1
{\fＭＳ 明朝|b0|i0|c128|p17;\W1.0;1}
  7
MTSTANDARD
 73
     1
 44
0.9375
  0
MTEXT
  5
270
330
1F
100
AcDbEntity
  8
1
  6
Continuous
 62
     7
100
AcDbMText
 10
-384.8445009448737
 20
-1835.268007547695
 30
0.0
 40
8.0
 41
0.0
 71
     7
 72
     5
  1
{\fＭＳ 明朝|b0|i0|c128|p17;\W1.0;1}
  7
MTSTANDARD
 73
     1
 44
0.9375
  0
MTEXT
  5
271
330
1F
100
AcDbEntity
  8
1
  6
Continuous
 62
     7
100
AcDbMText
 10
-384.8445009448737
 20
-1851.268007547695
 30
0.0
 40
8.0
 41
0.0
 71
     7
 72
     5
  1
{\fＭＳ 明朝|b0|i0|c128|p17;\W1.0;3}
  7
MTSTANDARD
 73
     1
 44
0.9375
  0
LINE
  5
272
330
1F
100
AcDbEntity
  8
1
  6
Continuous
 62
     7
100
AcDbLine
 10
-373.5111676115389
 20
-1695.268007547695
 30
0.0
 11
-373.5111676114954
 21
-1855.268007547695
 31
0.0
  0
LINE
  5
273
330
1F
100
AcDbEntity
  8
1
  6
Continuous
 62
     7
100
AcDbLine
 10
-392.1778342782064
 20
-1743.268007547668
 30
0.0
 11
-373.5111676115389
 21
-1743.268007547668
 31
0.0
  0
LINE
  5
274
330
1F
100
AcDbEntity
  8
1
  6
Continuous
 62
     7
100
AcDbLine
 10
-392.1778342782064
 20
-1775.268007547694
 30
0.0
 11
-373.5111676115389
 21
-1775.268007547694
 31
0.0
  0
DIMENSION
  5
282
330
1F
100
AcDbEntity
  8
1
  6
ByBlock
 62
     3
100
AcDbDimension
  2
_D5
 10
-509.7854526333728
 20
-1464.958855655026
 30
0.0
 11
-521.7854526333729
 21
-1498.958855655048
 31
0.0
 70
   160
  1
ＹＤＧ　Ｌ＝８２ｍｍの時\P（７０～１０２）
 71
     5
 42
-1.0
 52
90.0
  3
DIMSTYEX_16
100
AcDbAlignedDimension
 13
-483.9106053654517
 23
-1532.958855655069
 33
0.0
 14
-460.4106053654549
 24
-1464.958855655026
 34
0.0
 50
90.0
100
AcDbRotatedDimension
1001
ACAD
1000
DSTYLE
1002
{
1070
   343
1005
88
1070
   344
1005
88
1070
    43
1040
0.0
1070
   147
1040
1.0
1070
   173
1070
     1
1070
   272
1070
     3
1070
   340
1005
83
1070
   140
1040
3.584
1002
}
  0
LINE
  5
283
330
1F
100
AcDbEntity
  8
6
  6
Continuous
 62
     7
100
AcDbLine
 10
-396.9106053654475
 20
-1621.458855655071
 30
0.0
 11
-396.9106053654475
 21
-1623.458855655071
 31
0.0
  0
LINE
  5
284
330
1F
100
AcDbEntity
  8
6
  6
Continuous
 62
     7
100
AcDbLine
 10
-392.4106053654477
 20
-1627.958855655071
 30
0.0
 11
-366.4106053654475
 21
-1627.958855655071
 31
0.0
  0
LINE
  5
285
330
1F
100
AcDbEntity
  8
6
  6
Continuous
 62
     7
100
AcDbLine
 10
-394.4106053654477
 20
-1618.958855655071
 30
0.0
 11
-366.4106053654475
 21
-1618.958855655071
 31
0.0
  0
LINE
  5
286
330
1F
100
AcDbEntity
  8
6
  6
Continuous
 62
     7
100
AcDbLine
 10
-396.2176053654473
 20
-1640.958855655071
 30
0.0
 11
-395.764488027072
 21
-1626.459100827061
 31
0.0
  0
LINE
  5
287
330
1F
100
AcDbEntity
  8
6
  6
Continuous
 62
     7
100
AcDbLine
 10
-394.6448553654475
 20
-1640.958855655071
 30
0.0
 11
-394.2266453808702
 21
-1627.576136148598
 31
0.0
  0
LINE
  5
288
330
1F
100
AcDbEntity
  8
6
  6
Continuous
 62
     7
100
AcDbLine
 10
-405.2465012008054
 20
-1640.958855655071
 30
0.0
 11
-366.4106053654475
 21
-1640.958855655071
 31
0.0
  0
ARC
  5
289
330
1F
100
AcDbEntity
  8
6
  6
Continuous
 62
     7
100
AcDbCircle
 10
-394.4106053654477
 20
-1621.458855655071
 30
0.0
 40
2.5
100
AcDbArc
 50
90.0
 51
180.0
  0
ARC
  5
28A
330
1F
100
AcDbEntity
  8
6
  6
Continuous
 62
     7
100
AcDbCircle
 10
-392.4106053654477
 20
-1623.458855655071
 30
0.0
 40
4.5
100
AcDbArc
 50
246.1988007052884
 51
270.0
  0
ARC
  5
28B
330
1F
100
AcDbEntity
  8
6
  6
Continuous
 62
     7
100
AcDbCircle
 10
-392.4106053654477
 20
-1623.458855655071
 30
0.0
 40
4.5
100
AcDbArc
 50
180.0
 51
246.1988007052884
  0
LINE
  5
28C
330
1F
100
AcDbEntity
  8
6
  6
Continuous
 62
     7
100
AcDbLine
 10
-392.7822665023705
 20
-1617.406506410017
 30
0.0
 11
-394.8769033132355
 21
-1557.423956158368
 31
0.0
  0
LINE
  5
28D
330
1F
100
AcDbEntity
  8
6
  6
Continuous
 62
     7
100
AcDbLine
 10
-407.8762941402545
 20
-1620.958855655071
 30
0.0
 11
-420.5820841879392
 21
-1620.958855655071
 31
0.0
  0
LINE
  5
28E
330
1F
100
AcDbEntity
  8
6
  6
Continuous
 62
     7
100
AcDbLine
 10
-406.8769033132355
 20
-1621.923956158368
 30
0.0
 11
-406.2458920278243
 21
-1639.993755151773
 31
0.0
  0
POINT
  5
28F
330
1F
100
AcDbEntity
  8
6
  6
Continuous
 62
     7
100
AcDbPoint
 10
-406.9106053654475
 20
-1620.958855655071
 30
0.0
  0
ARC
  5
290
330
1F
100
AcDbEntity
  8
6
  6
Continuous
 62
     7
100
AcDbCircle
 10
-407.8762941402545
 20
-1621.958855655071
 30
0.0
 40
1.0
100
AcDbArc
 50
2.000000000003953
 51
90.0
  0
ARC
  5
291
330
1F
100
AcDbEntity
  8
6
  6
Continuous
 62
     7
100
AcDbCircle
 10
-405.2465012008054
 20
-1639.958855655071
 30
0.0
 40
1.0
100
AcDbArc
 50
182.000000000003
 51
270.0
  0
LINE
  5
292
330
1F
100
AcDbEntity
  8
6
  6
Continuous
 62
     7
100
AcDbLine
 10
-405.8342954089878
 20
-1616.458855655071
 30
0.0
 11
-416.1874641168404
 21
-1616.458855655071
 31
0.0
  0
LINE
  5
293
330
1F
100
AcDbEntity
  8
6
  6
HIDDEN2
 62
     7
100
AcDbLine
 10
-416.1871528916474
 20
-1616.458855655071
 30
0.0
 11
-421.0821614914119
 21
-1616.458855655071
 31
0.0
  0
LINE
  5
294
330
1F
100
AcDbEntity
  8
6
  6
HIDDEN2
 62
     7
100
AcDbLine
 10
-425.5791156265075
 20
-1611.633353138583
 30
0.0
 11
-426.7887570430391
 21
-1569.993755151773
 31
0.0
  0
LINE
  5
295
330
1F
100
AcDbEntity
  8
6
  6
Continuous
 62
     7
100
AcDbLine
 10
-426.7887570430391
 20
-1569.993755151773
 30
0.0
 11
-427.8213571776575
 21
-1533.923956158367
 31
0.0
  0
POINT
  5
296
330
1F
100
AcDbEntity
  8
6
  6
Continuous
 62
     7
100
AcDbPoint
 10
-425.4106053654475
 20
-1616.458855655071
 30
0.0
  0
ARC
  5
297
330
1F
100
AcDbEntity
  8
6
  6
HIDDEN2
 62
     7
100
AcDbCircle
 10
-420.5821614914119
 20
-1611.458855655071
 30
0.0
 40
5.0
100
AcDbArc
 50
181.9999999999984
 51
270.0
  0
ARC
  5
298
330
1F
100
AcDbEntity
  8
6
  6
Continuous
 62
     7
100
AcDbCircle
 10
-394.2813527428993
 20
-1617.458855655071
 30
0.0
 40
1.5
100
AcDbArc
 50
270.0
 51
2.000000000003347
  0
LINE
  5
299
330
1F
100
AcDbEntity
  8
6
  6
Continuous
 62
     7
100
AcDbLine
 10
-395.8762941402545
 20
-1556.458855655071
 30
0.0
 11
-397.9449165906401
 21
-1556.458855655071
 31
0.0
  0
LINE
  5
29A
330
1F
100
AcDbEntity
  8
6
  6
Continuous
 62
     7
100
AcDbLine
 10
-398.9443074176595
 20
-1557.423956158368
 30
0.0
 11
-400.8373412738922
 21
-1611.633353138583
 31
0.0
  0
POINT
  5
29B
330
1F
100
AcDbEntity
  8
6
  6
Continuous
 62
     7
100
AcDbPoint
 10
-401.0058515349522
 20
-1616.458855655071
 30
0.0
  0
POINT
  5
29C
330
1F
100
AcDbEntity
  8
6
  6
Continuous
 62
     7
100
AcDbPoint
 10
-398.9106053654475
 20
-1556.458855655071
 30
0.0
  0
POINT
  5
29D
330
1F
100
AcDbEntity
  8
6
  6
Continuous
 62
     7
100
AcDbPoint
 10
-394.9106053654475
 20
-1556.458855655071
 30
0.0
  0
ARC
  5
29E
330
1F
100
AcDbEntity
  8
6
  6
Continuous
 62
     7
100
AcDbCircle
 10
-405.8342954089878
 20
-1611.458855655071
 30
0.0
 40
5.0
100
AcDbArc
 50
270.0
 51
358.0000000000016
  0
ARC
  5
29F
330
1F
100
AcDbEntity
  8
6
  6
Continuous
 62
     7
100
AcDbCircle
 10
-395.8762941402545
 20
-1557.458855655071
 30
0.0
 40
1.0
100
AcDbArc
 50
2.000000000003953
 51
90.0
  0
ARC
  5
2A0
330
1F
100
AcDbEntity
  8
6
  6
Continuous
 62
     7
100
AcDbCircle
 10
-397.9449165906401
 20
-1557.45885565507
 30
0.0
 40
1.0
100
AcDbArc
 50
90.0
 51
177.999999999997
  0
LINE
  5
2A1
330
1F
100
AcDbEntity
  8
6
  6
Continuous
 62
     7
100
AcDbLine
 10
-394.9106053654475
 20
-1556.458855655071
 30
0.0
 11
-366.4106053654475
 21
-1556.458855655071
 31
0.0
  0
ARC
  5
2A2
330
1F
100
AcDbEntity
  8
1
  6
Continuous
 62
     7
100
AcDbCircle
 10
-428.8207480046769
 20
-1533.95885565507
 30
0.0
 40
1.0
100
AcDbArc
 50
2.000000000003044
 51
90.0
  0
LINE
  5
2A3
330
1F
100
AcDbEntity
  8
6
  6
Continuous
 62
     7
100
AcDbLine
 10
-417.1056632791062
 20
-1616.458855655071
 30
0.0
 11
-425.4106053654475
 21
-1616.458855655071
 31
0.0
  0
LINE
  5
2A4
330
1F
100
AcDbEntity
  8
6
  6
Continuous
 62
     7
100
AcDbLine
 10
-425.4106053654475
 20
-1616.458855655071
 30
0.0
 11
-425.5077337435575
 21
-1613.677462818542
 31
0.0
  0
LINE
  5
2A5
330
1F
100
AcDbEntity
  8
1
  6
Continuous
 62
     7
100
AcDbLine
 10
-418.410909951938
 20
-1573.441405906719
 30
0.0
 11
-417.1868549438598
 21
-1615.493755151773
 31
0.0
  0
LINE
  5
2A6
330
1F
100
AcDbEntity
  8
1
  6
Continuous
 62
     7
100
AcDbLine
 10
-418.9106053654475
 20
-1572.958855655071
 30
0.0
 11
-424.177760978044
 21
-1572.95885565507
 31
0.0
  0
ARC
  5
2A7
330
1F
100
AcDbEntity
  8
1
  6
Continuous
 62
     7
100
AcDbCircle
 10
-416.1874641168404
 20
-1615.458855655071
 30
0.0
 40
1.0
100
AcDbArc
 50
181.9999999999901
 51
270.0
  0
LINE
  5
2A8
330
1F
100
AcDbEntity
  8
1
  6
Continuous
 62
     7
100
AcDbLine
 10
-424.6606053654475
 20
-1572.476305403422
 30
0.0
 11
-424.6967448522189
 21
-1571.441405906719
 31
0.0
  0
LINE
  5
2A9
330
1F
100
AcDbEntity
  8
1
  6
Continuous
 62
     7
100
AcDbLine
 10
-425.1964402657284
 20
-1570.95885565507
 30
0.0
 11
-425.7893662160202
 21
-1570.958855655071
 31
0.0
  0
ARC
  5
2AA
330
1F
100
AcDbEntity
  8
1
  6
Continuous
 62
     7
100
AcDbCircle
 10
-425.1964402657284
 20
-1571.45885565507
 30
0.0
 40
0.5
100
AcDbArc
 50
2.000000000003953
 51
90.0
  0
ARC
  5
2AB
330
1F
100
AcDbEntity
  8
1
  6
Continuous
 62
     7
100
AcDbCircle
 10
-418.9106053654475
 20
-1573.458855655071
 30
0.0
 40
0.5
100
AcDbArc
 50
2.000000000003953
 51
90.0
  0
ARC
  5
2AC
330
1F
100
AcDbEntity
  8
1
  6
Continuous
 62
     7
100
AcDbCircle
 10
-425.7893662160202
 20
-1569.958855655071
 30
0.0
 40
1.0
100
AcDbArc
 50
181.999999999991
 51
270.0
  0
ARC
  5
2AD
330
1F
100
AcDbEntity
  8
1
  6
Continuous
 62
     7
100
AcDbCircle
 10
-424.160909951938
 20
-1572.458855655071
 30
0.0
 40
0.5
100
AcDbArc
 50
182.0000000000039
 51
270.0
  0
LINE
  5
2AE
330
1F
100
AcDbEntity
  8
1
  6
Continuous
 62
     7
100
AcDbLine
 10
-430.0779935402441
 20
-1611.737612848354
 30
0.0
 11
-432.0410000176328
 21
-1547.502866984628
 31
0.0
  0
ARC
  5
2AF
330
1F
100
AcDbEntity
  8
1
  6
Continuous
 62
     7
100
AcDbCircle
 10
-420.5820841879392
 20
-1611.458855655071
 30
0.0
 40
9.5
100
AcDbArc
 50
181.6814635271747
 51
270.0
  0
LINE
  5
2B0
330
1F
100
AcDbEntity
  8
1
  6
Continuous
 62
     7
100
AcDbLine
 10
-431.7955940869747
 20
-1532.958855655106
 30
0.0
 11
-426.3346200324138
 21
-1532.95885565507
 31
0.0
  0
LINE
  5
2B1
330
1F
100
AcDbEntity
  8
1
  6
Continuous
 62
     7
100
AcDbLine
 10
-429.6201230250501
 20
-1532.259259006454
 30
0.0
 11
-427.8561478956619
 21
-1526.658452303687
 31
0.0
  0
LINE
  5
2B2
330
1F
100
AcDbEntity
  8
1
  6
Continuous
 62
     7
100
AcDbLine
 10
-425.353635218519
 20
-1532.152940159623
 30
0.0
 11
-424.2876043302047
 21
-1526.764771150517
 31
0.0
  0
LINE
  5
2B3
330
1F
100
AcDbEntity
  8
1
  6
Continuous
 62
     7
100
AcDbLine
 10
-424.1281566940845
 20
-1525.95885565507
 30
0.0
 11
-426.9023356361065
 21
-1525.95885565507
 31
0.0
  0
LINE
  5
2B4
330
1F
100
AcDbEntity
  8
1
  6
Continuous
 62
     7
100
AcDbLine
 10
-423.3066195163099
 20
-1525.95885565507
 30
0.0
 11
-422.9256053654474
 21
-1525.95885565507
 31
0.0
  0
ARC
  5
2B5
330
1F
100
AcDbEntity
  8
1
  6
Continuous
 62
     7
100
AcDbCircle
 10
-423.3066195163099
 20
-1526.95885565507
 30
0.0
 40
1.0
100
AcDbArc
 50
90.0
 51
168.8087521348427
  0
ARC
  5
2B6
330
1F
100
AcDbEntity
  8
1
  6
Continuous
 62
     7
100
AcDbCircle
 10
-426.9023356361065
 20
-1526.95885565507
 30
0.0
 40
1.0
100
AcDbArc
 50
90.0
 51
162.5181690540945
  0
ARC
  5
2B7
330
1F
100
AcDbEntity
  8
1
  6
Continuous
 62
     7
100
AcDbCircle
 10
-426.3346200324138
 20
-1531.95885565507
 30
0.0
 40
1.0
100
AcDbArc
 50
270.0
 51
348.8087521348427
  0
ARC
  5
2B8
330
1F
100
AcDbEntity
  8
1
  6
Continuous
 62
     7
100
AcDbCircle
 10
-430.5739352846056
 20
-1531.95885565507
 30
0.0
 40
1.0
100
AcDbArc
 50
270.0
 51
342.5181690540945
  0
LINE
  5
2B9
330
1F
100
AcDbEntity
  8
4
  6
Continuous
 62
     7
100
AcDbLine
 10
-411.9106053654475
 20
-1606.458855655071
 30
0.0
 11
-400.6566438400348
 21
-1606.458855655071
 31
0.0
  0
POINT
  5
2BA
330
1F
100
AcDbEntity
  8
1
  6
Continuous
 62
     7
100
AcDbPoint
 10
-420.2199014439091
 20
-1572.95885565507
 30
0.0
  0
POINT
  5
2BB
330
1F
100
AcDbEntity
  8
1
  6
Continuous
 62
     7
100
AcDbPoint
 10
-424.2199014439091
 20
-1572.95885565507
 30
0.0
  0
LINE
  5
2BC
330
1F
100
AcDbEntity
  8
6
  6
Continuous
 62
     7
100
AcDbLine
 10
-335.9106053654475
 20
-1621.458855655071
 30
0.0
 11
-335.9106053654475
 21
-1623.458855655071
 31
0.0
  0
LINE
  5
2BD
330
1F
100
AcDbEntity
  8
6
  6
Continuous
 62
     7
100
AcDbLine
 10
-340.4106053654475
 20
-1627.958855655071
 30
0.0
 11
-366.4106053654475
 21
-1627.958855655071
 31
0.0
  0
LINE
  5
2BE
330
1F
100
AcDbEntity
  8
6
  6
Continuous
 62
     7
100
AcDbLine
 10
-338.4106053654475
 20
-1618.958855655071
 30
0.0
 11
-366.4106053654475
 21
-1618.958855655071
 31
0.0
  0
LINE
  5
2BF
330
1F
100
AcDbEntity
  8
6
  6
Continuous
 62
     7
100
AcDbLine
 10
-336.6036053654477
 20
-1640.958855655071
 30
0.0
 11
-337.056722703823
 21
-1626.459100827062
 31
0.0
  0
LINE
  5
2C0
330
1F
100
AcDbEntity
  8
6
  6
Continuous
 62
     7
100
AcDbLine
 10
-338.1763553654475
 20
-1640.958855655071
 30
0.0
 11
-338.5945653500251
 21
-1627.576136148599
 31
0.0
  0
LINE
  5
2C1
330
1F
100
AcDbEntity
  8
6
  6
Continuous
 62
     7
100
AcDbLine
 10
-327.5747095300896
 20
-1640.958855655071
 30
0.0
 11
-366.4106053654475
 21
-1640.958855655071
 31
0.0
  0
ARC
  5
2C2
330
1F
100
AcDbEntity
  8
6
  6
Continuous
 62
     7
100
AcDbCircle
 10
-338.4106053654475
 20
-1621.458855655071
 30
0.0
 40
2.5
100
AcDbArc
 50
0.0
 51
90.0
  0
ARC
  5
2C3
330
1F
100
AcDbEntity
  8
6
  6
Continuous
 62
     7
100
AcDbCircle
 10
-340.4106053654475
 20
-1623.458855655071
 30
0.0
 40
4.5
100
AcDbArc
 50
270.0
 51
293.8011992947116
  0
ARC
  5
2C4
330
1F
100
AcDbEntity
  8
6
  6
Continuous
 62
     7
100
AcDbCircle
 10
-340.4106053654475
 20
-1623.458855655071
 30
0.0
 40
4.5
100
AcDbArc
 50
293.8011992947116
 51
0.0
  0
LINE
  5
2C5
330
1F
100
AcDbEntity
  8
6
  6
Continuous
 62
     7
100
AcDbLine
 10
-340.0389442285248
 20
-1617.406506410017
 30
0.0
 11
-337.9443074176595
 21
-1557.423956158368
 31
0.0
  0
LINE
  5
2C6
330
1F
100
AcDbEntity
  8
6
  6
Continuous
 62
     7
100
AcDbLine
 10
-324.9449165906406
 20
-1620.958855655071
 30
0.0
 11
-312.2391265429558
 21
-1620.958855655071
 31
0.0
  0
LINE
  5
2C7
330
1F
100
AcDbEntity
  8
6
  6
Continuous
 62
     7
100
AcDbLine
 10
-325.9443074176595
 20
-1621.923956158368
 30
0.0
 11
-326.5753187030707
 21
-1639.993755151773
 31
0.0
  0
POINT
  5
2C8
330
1F
100
AcDbEntity
  8
6
  6
Continuous
 62
     7
100
AcDbPoint
 10
-325.9106053654475
 20
-1620.958855655071
 30
0.0
  0
ARC
  5
2C9
330
1F
100
AcDbEntity
  8
6
  6
Continuous
 62
     7
100
AcDbCircle
 10
-324.9449165906406
 20
-1621.958855655071
 30
0.0
 40
1.0
100
AcDbArc
 50
90.0
 51
177.9999999999961
  0
ARC
  5
2CA
330
1F
100
AcDbEntity
  8
6
  6
Continuous
 62
     7
100
AcDbCircle
 10
-327.5747095300896
 20
-1639.958855655071
 30
0.0
 40
1.0
100
AcDbArc
 50
270.0
 51
357.999999999997
  0
LINE
  5
2CB
330
1F
100
AcDbEntity
  8
6
  6
Continuous
 62
     7
100
AcDbLine
 10
-326.9869153219072
 20
-1616.458855655071
 30
0.0
 11
-312.2390492394832
 21
-1616.458855655071
 31
0.0
  0
LINE
  5
2CC
330
1F
100
AcDbEntity
  8
6
  6
Continuous
 62
     7
100
AcDbLine
 10
-310.0161326151999
 20
-1616.458855655071
 30
0.0
 11
-307.4106053654475
 21
-1616.458855655071
 31
0.0
  0
LINE
  5
2CD
330
1F
100
AcDbEntity
  8
6
  6
Continuous
 62
     7
100
AcDbLine
 10
-307.4106053654475
 20
-1616.458855655071
 30
0.0
 11
-307.3134769873375
 21
-1613.677462818542
 31
0.0
  0
LINE
  5
2CE
330
1F
100
AcDbEntity
  8
6
  6
Continuous
 62
     7
100
AcDbLine
 10
-307.2420951043875
 20
-1611.633353138583
 30
0.0
 11
-304.7554081667952
 21
-1526.923956158368
 31
0.0
  0
POINT
  5
2CF
330
1F
100
AcDbEntity
  8
6
  6
Continuous
 62
     7
100
AcDbPoint
 10
-307.4106053654475
 20
-1616.458855655071
 30
0.0
  0
ARC
  5
2D0
330
1F
100
AcDbEntity
  8
6
  6
Continuous
 62
     7
100
AcDbCircle
 10
-312.2390492394832
 20
-1611.458855655071
 30
0.0
 40
5.0
100
AcDbArc
 50
270.0
 51
358.0000000000016
  0
ARC
  5
2D1
330
1F
100
AcDbEntity
  8
6
  6
Continuous
 62
     7
100
AcDbCircle
 10
-338.5398579879959
 20
-1617.458855655071
 30
0.0
 40
1.5
100
AcDbArc
 50
177.9999999999967
 51
270.0
  0
LINE
  5
2D2
330
1F
100
AcDbEntity
  8
6
  6
Continuous
 62
     7
100
AcDbLine
 10
-336.9449165906406
 20
-1556.458855655071
 30
0.0
 11
-334.8762941402549
 21
-1556.458855655071
 31
0.0
  0
LINE
  5
2D3
330
1F
100
AcDbEntity
  8
6
  6
Continuous
 62
     7
100
AcDbLine
 10
-333.8769033132355
 20
-1557.423956158368
 30
0.0
 11
-331.9838694570028
 21
-1611.633353138583
 31
0.0
  0
POINT
  5
2D4
330
1F
100
AcDbEntity
  8
6
  6
Continuous
 62
     7
100
AcDbPoint
 10
-331.8153591959428
 20
-1616.458855655071
 30
0.0
  0
POINT
  5
2D5
330
1F
100
AcDbEntity
  8
6
  6
Continuous
 62
     7
100
AcDbPoint
 10
-333.9106053654475
 20
-1556.458855655071
 30
0.0
  0
POINT
  5
2D6
330
1F
100
AcDbEntity
  8
6
  6
Continuous
 62
     7
100
AcDbPoint
 10
-337.9106053654475
 20
-1556.458855655071
 30
0.0
  0
ARC
  5
2D7
330
1F
100
AcDbEntity
  8
6
  6
Continuous
 62
     7
100
AcDbCircle
 10
-326.9869153219072
 20
-1611.458855655071
 30
0.0
 40
5.0
100
AcDbArc
 50
181.9999999999984
 51
270.0
  0
ARC
  5
2D8
330
1F
100
AcDbEntity
  8
6
  6
Continuous
 62
     7
100
AcDbCircle
 10
-336.9449165906406
 20
-1557.458855655071
 30
0.0
 40
1.0
100
AcDbArc
 50
90.0
 51
177.9999999999961
  0
ARC
  5
2D9
330
1F
100
AcDbEntity
  8
6
  6
Continuous
 62
     7
100
AcDbCircle
 10
-334.8762941402549
 20
-1557.45885565507
 30
0.0
 40
1.0
100
AcDbArc
 50
2.000000000003044
 51
90.0
  0
LINE
  5
2DA
330
1F
100
AcDbEntity
  8
6
  6
Continuous
 62
     7
100
AcDbLine
 10
-300.4637380646789
 20
-1528.968835245645
 30
0.0
 11
-304.8401877220956
 21
-1529.351724977161
 31
0.0
  0
LINE
  5
2DB
330
1F
100
AcDbEntity
  8
6
  6
Continuous
 62
     7
100
AcDbLine
 10
-300.0279593509406
 20
-1533.949808736103
 30
0.0
 11
-305.0159956512523
 21
-1534.386205365636
 31
0.0
  0
LINE
  5
2DC
330
1F
100
AcDbEntity
  8
6
  6
Continuous
 62
     7
100
AcDbLine
 10
-300.4259996280691
 20
-1529.400187549918
 30
0.0
 11
-304.8554126887605
 21
-1529.787710978803
 31
0.0
  0
LINE
  5
2DD
330
1F
100
AcDbEntity
  8
6
  6
Continuous
 62
     7
100
AcDbLine
 10
-300.0656977875503
 20
-1533.518456431829
 30
0.0
 11
-305.000770684587
 21
-1533.950219363994
 31
0.0
  0
LINE
  5
2DE
330
1F
100
AcDbEntity
  8
6
  6
CENTER2
 62
     7
100
AcDbLine
 10
-293.5112211949815
 20
-1530.870118430432
 30
0.0
 11
-308.6410435841024
 21
-1532.19380637064
 31
0.0
  0
LINE
  5
2DF
330
1F
100
AcDbEntity
  8
6
  6
Continuous
 62
     7
100
AcDbLine
 10
-300.6472136322243
 20
-1526.871699912324
 30
0.0
 11
-299.1544772956129
 21
-1543.958855655071
 31
0.0
  0
LINE
  5
2E0
330
1F
100
AcDbEntity
  8
1
  6
Continuous
 62
     7
100
AcDbLine
 10
-303.7560173397762
 20
-1525.958855655071
 30
0.0
 11
-301.6434083303159
 21
-1525.958855655071
 31
0.0
  0
LINE
  5
2E1
330
1F
100
AcDbEntity
  8
6
  6
Continuous
 62
     7
100
AcDbLine
 10
-337.9106053654475
 20
-1556.458855655071
 30
0.0
 11
-366.4106053654475
 21
-1556.458855655071
 31
0.0
  0
ARC
  5
2E2
330
1F
100
AcDbEntity
  8
1
  6
Continuous
 62
     7
100
AcDbCircle
 10
-303.7560173397762
 20
-1526.95885565507
 30
0.0
 40
1.0
100
AcDbArc
 50
90.0
 51
177.9999999999961
  0
ARC
  5
2E3
330
1F
100
AcDbEntity
  8
1
  6
Continuous
 62
     7
100
AcDbCircle
 10
-301.6434083303159
 20
-1526.958855655072
 30
0.0
 40
1.0
100
AcDbArc
 50
5.000000000000595
 51
90.0
  0
LINE
  5
2E4
330
1F
100
AcDbEntity
  8
1
  6
Continuous
 62
     7
100
AcDbLine
 10
-302.743217190651
 20
-1611.737612848354
 30
0.0
 11
-301.1893683479736
 21
-1558.958855655071
 31
0.0
  0
ARC
  5
2E5
330
1F
100
AcDbEntity
  8
1
  6
Continuous
 62
     7
100
AcDbCircle
 10
-312.2391265429558
 20
-1611.458855655071
 30
0.0
 40
9.5
100
AcDbArc
 50
270.0
 51
358.3185364728253
  0
POINT
  5
2E6
330
1F
100
AcDbEntity
  8
1
  6
Continuous
 62
     7
100
AcDbPoint
 10
-304.7270771562983
 20
-1525.958855655072
 30
0.0
  0
POINT
  5
2E7
330
1F
100
AcDbEntity
  8
1
  6
Continuous
 62
     7
100
AcDbPoint
 10
-300.7270771562987
 20
-1525.958855655071
 30
0.0
  0
LINE
  5
2E8
330
1F
100
AcDbEntity
  8
6
  6
Continuous
 62
     7
100
AcDbLine
 10
-298.4440288110334
 20
-1528.792133582332
 30
0.0
 11
-307.9746234876773
 21
-1529.625952573199
 31
0.0
  0
LINE
  5
2E9
330
1F
100
AcDbEntity
  8
6
  6
Continuous
 62
     7
100
AcDbLine
 10
-298.0082500972951
 20
-1533.773107072791
 30
0.0
 11
-307.538844773939
 21
-1534.606926063658
 31
0.0
  0
LINE
  5
2EA
330
1F
100
AcDbEntity
  8
6
  6
Continuous
 62
     7
100
AcDbLine
 10
-307.9746234876773
 20
-1529.625952573199
 30
0.0
 11
-308.3682373553413
 21
-1530.095043314082
 31
0.0
  0
LINE
  5
2EB
330
1F
100
AcDbEntity
  8
6
  6
Continuous
 62
     7
100
AcDbLine
 10
-307.538844773939
 20
-1534.606926063658
 30
0.0
 11
-308.0079355148225
 21
-1534.213312195994
 31
0.0
  0
LINE
  5
2EC
330
1F
100
AcDbEntity
  8
6
  6
Continuous
 62
     7
100
AcDbLine
 10
-308.3682373553413
 20
-1530.095043314082
 30
0.0
 11
-308.0079355148225
 21
-1534.213312195994
 31
0.0
  0
LINE
  5
2ED
330
1F
100
AcDbEntity
  8
6
  6
Continuous
 62
     7
100
AcDbLine
 10
-307.9746234876773
 20
-1529.625952573199
 30
0.0
 11
-307.538844773939
 21
-1534.606926063658
 31
0.0
  0
LINE
  5
2EE
330
1F
100
AcDbEntity
  8
6
  6
Continuous
 62
     7
100
AcDbLine
 10
-298.4062903744236
 20
-1529.223485886606
 30
0.0
 11
-308.3682373553413
 21
-1530.095043314082
 31
0.0
  0
LINE
  5
2EF
330
1F
100
AcDbEntity
  8
6
  6
Continuous
 62
     7
100
AcDbLine
 10
-298.0459885339048
 20
-1533.341754768517
 30
0.0
 11
-308.0079355148225
 21
-1534.213312195994
 31
0.0
  0
LINE
  5
2F0
330
1F
100
AcDbEntity
  8
1
  6
Continuous
 62
     7
100
AcDbLine
 10
-298.6286945864588
 20
-1526.681394110693
 30
0.0
 11
-297.8235843218702
 21
-1535.88384654443
 31
0.0
  0
LINE
  5
2F1
330
1F
100
AcDbEntity
  8
1
  6
Continuous
 62
     7
100
AcDbLine
 10
-298.6286945864588
 20
-1526.681394110693
 30
0.0
 11
-295.6401104921833
 21
-1526.41992688245
 31
0.0
  0
LINE
  5
2F2
330
1F
100
AcDbEntity
  8
1
  6
Continuous
 62
     7
100
AcDbLine
 10
-295.0413743600641
 20
-1527.526655565293
 30
0.0
 11
-294.7394580108432
 21
-1530.977575227945
 31
0.0
  0
LINE
  5
2F3
330
1F
100
AcDbEntity
  8
1
  6
Continuous
 62
     7
100
AcDbLine
 10
-297.8235843218702
 20
-1535.88384654443
 30
0.0
 11
-294.8350002275949
 21
-1535.622379316187
 31
0.0
  0
LINE
  5
2F4
330
1F
100
AcDbEntity
  8
1
  6
Continuous
 62
     7
100
AcDbLine
 10
-294.4375416616224
 20
-1534.428494890596
 30
0.0
 11
-294.7394580108432
 21
-1530.977575227945
 31
0.0
  0
ARC
  5
2F5
330
1F
100
AcDbEntity
  8
1
  6
Continuous
 62
     7
100
AcDbCircle
 10
-296.0148499336017
 20
-1534.56649148328
 30
0.0
 40
1.583333333333975
100
AcDbArc
 50
318.1735511072658
 51
51.82644889273416
  0
ARC
  5
2F6
330
1F
100
AcDbEntity
  8
1
  6
Continuous
 62
     7
100
AcDbCircle
 10
-300.3015450751857
 20
-1531.464194791619
 30
0.0
 40
5.583333333330427
100
AcDbArc
 50
340.5673023205371
 51
29.43269767946525
  0
ARC
  5
2F7
330
1F
100
AcDbEntity
  8
1
  6
Continuous
 62
     7
100
AcDbCircle
 10
-296.6186826320431
 20
-1527.664652157977
 30
0.0
 40
1.583333333333975
100
AcDbArc
 50
318.1735511072714
 51
51.82644889272908
  0
LINE
  5
2F8
330
1F
100
AcDbEntity
  8
1
  6
Continuous
 62
     7
100
AcDbLine
 10
-295.0362777937419
 20
-1533.321766207752
 30
0.0
 11
-298.0248618880189
 21
-1533.583233435995
 31
0.0
  0
LINE
  5
2F9
330
1F
100
AcDbEntity
  8
1
  6
Continuous
 62
     7
100
AcDbLine
 10
-298.4274170203114
 20
-1528.982007219128
 30
0.0
 11
-295.4388329260362
 21
-1528.720539990885
 31
0.0
  0
DIMENSION
  5
307
330
1F
100
AcDbEntity
  8
1
  6
ByBlock
 62
     3
100
AcDbDimension
  2
_D6
 10
-336.6036053654477
 20
-1658.897107077767
 30
0.0
 11
-366.4106053654475
 21
-1654.897107077767
 31
0.0
 70
   160
  1
Ｒｃ２
 71
     5
 42
-1.0
 52
90.0
  3
DIMSTYEX_17
100
AcDbAlignedDimension
 13
-396.2176053654473
 23
-1640.958855655071
 33
0.0
 14
-336.6036053654477
 24
-1640.958855655071
 34
0.0
100
AcDbRotatedDimension
1001
ACAD
1000
DSTYLE
1002
{
1070
   343
1005
88
1070
   344
1005
88
1070
    43
1040
2.969960569123145
1070
   173
1070
     1
1070
   272
1070
     3
1070
   340
1005
83
1070
   140
1040
3.584
1002
}
  0
DIMENSION
  5
315
330
1F
100
AcDbEntity
  8
1
  6
ByBlock
 62
     3
100
AcDbDimension
  2
_D7
 10
-376.8163804467856
 20
-1556.458855655071
 30
0.0
 11
-380.8163804467856
 21
-1581.458855655071
 31
0.0
 70
   160
 71
     5
 42
-1.0
 52
90.0
  3
DIMSTYEX_18
100
AcDbAlignedDimension
 13
-400.6566438400348
 23
-1606.458855655071
 33
0.0
 14
-390.550872140125
 24
-1556.458855655071
 34
0.0
 50
90.0
100
AcDbRotatedDimension
1001
ACAD
1000
DSTYLE
1002
{
1070
   343
1005
88
1070
   344
1005
88
1070
    43
1040
0.0
1070
   173
1070
     1
1070
   272
1070
     3
1070
   340
1005
83
1070
   140
1040
3.584
1002
}
  0
LINE
  5
316
330
1F
100
AcDbEntity
  8
6
  6
Continuous
 62
     7
100
AcDbLine
 10
-300.4640055492175
 20
-1528.968858647509
 30
0.0
 11
-304.8401877220956
 21
-1529.35172497716
 31
0.0
  0
LINE
  5
317
330
1F
100
AcDbEntity
  8
6
  6
Continuous
 62
     7
100
AcDbLine
 10
-300.0288621466004
 20
-1533.949887720489
 30
0.0
 11
-305.0159956512523
 21
-1534.386205365636
 31
0.0
  0
LINE
  5
318
330
1F
100
AcDbEntity
  8
6
  6
Continuous
 62
     7
100
AcDbLine
 10
-300.4263221305512
 20
-1529.400215765229
 30
0.0
 11
-304.8554126887605
 21
-1529.787710978802
 31
0.0
  0
LINE
  5
319
330
1F
100
AcDbEntity
  8
6
  6
Continuous
 62
     7
100
AcDbLine
 10
-300.0665455652672
 20
-1533.518530602769
 30
0.0
 11
-305.000770684587
 21
-1533.950219363994
 31
0.0
  0
LINE
  5
31A
330
1F
100
AcDbEntity
  8
1
  6
Continuous
 62
     7
100
AcDbLine
 10
-303.7560173397762
 20
-1525.958855655071
 30
0.0
 11
-301.6434083303159
 21
-1525.958855655071
 31
0.0
  0
ARC
  5
31B
330
1F
100
AcDbEntity
  8
1
  6
Continuous
 62
     7
100
AcDbCircle
 10
-303.7560173397762
 20
-1526.95885565507
 30
0.0
 40
1.0
100
AcDbArc
 50
90.0
 51
177.9999999999961
  0
POINT
  5
31C
330
1F
100
AcDbEntity
  8
1
  6
Continuous
 62
     7
100
AcDbPoint
 10
-304.7270771562983
 20
-1525.958855655072
 30
0.0
  0
POINT
  5
31D
330
1F
100
AcDbEntity
  8
1
  6
Continuous
 62
     7
100
AcDbPoint
 10
-300.7270771562987
 20
-1525.958855655071
 30
0.0
  0
ARC
  5
31E
330
1F
100
AcDbEntity
  8
1
  6
Continuous
 62
     7
100
AcDbCircle
 10
-301.6434083303159
 20
-1526.958855655071
 30
0.0
 40
1.0
100
AcDbArc
 50
4.999999999998323
 51
90.0
  0
LINE
  5
31F
330
1F
100
AcDbEntity
  8
1
  6
Continuous
 62
     7
100
AcDbLine
 10
-299.1544772956129
 20
-1543.958855655071
 30
0.0
 11
-300.1039522504327
 21
-1557.215463210537
 31
0.0
  0
ARC
  5
320
330
1F
100
AcDbEntity
  8
1
  6
Continuous
 62
     7
100
AcDbCircle
 10
-301.1033430774517
 20
-1557.180563713834
 30
0.0
 40
1.0
100
AcDbArc
 50
297.233874637235
 51
358.0000000000091
  0
LINE
  5
321
330
1F
100
AcDbEntity
  8
1
  6
HIDDEN2
 62
     7
100
AcDbLine
 10
-300.7802107132609
 20
-1547.502866984592
 30
0.0
 11
-301.1893683479736
 21
-1558.958855655071
 31
0.0
  0
ARC
  5
322
330
1F
100
AcDbEntity
  8
1
  6
Continuous
 62
     7
100
AcDbCircle
 10
-300.188095694645
 20
-1558.958855655071
 30
0.0
 40
1.0
100
AcDbArc
 50
117.2338746372059
 51
178.3067368498722
  0
ARC
  5
323
330
1F
100
AcDbEntity
  8
1
  6
HIDDEN2
 62
     7
100
AcDbCircle
 10
-295.7823940063952
 20
-1547.650610561694
 30
0.0
 40
5.0
100
AcDbArc
 50
132.4088667058103
 51
178.306736849878
  0
LINE
  5
324
330
1F
100
AcDbEntity
  8
6
  6
Continuous
 62
     7
100
AcDbLine
 10
-432.7917887850665
 20
-1533.871699912359
 30
0.0
 11
-433.666733435281
 21
-1543.958855655107
 31
0.0
  0
ARC
  5
325
330
1F
100
AcDbEntity
  8
1
  6
Continuous
 62
     7
100
AcDbCircle
 10
-431.7955940869747
 20
-1533.958855655106
 30
0.0
 40
1.0
100
AcDbArc
 50
90.0
 51
175.0000000000005
  0
ARC
  5
326
330
1F
100
AcDbEntity
  8
1
  6
Continuous
 62
     7
100
AcDbCircle
 10
-437.0388167244985
 20
-1547.650610561731
 30
0.0
 40
5.0
100
AcDbArc
 50
1.693263150122003
 51
47.5911332941934
  0
HATCH
  5
327
330
1F
100
AcDbEntity
  8
1
  6
Continuous
 62
     7
100
AcDbHatch
 10
0.0
 20
0.0
 30
0.0
210
0.0
220
0.0
230
1.0
  2
_U
 70
     0
 71
     0
 91
        3
 92
        0
 93
       30
 72
     2
 10
-428.8207480046769
 20
-1533.95885565507
 40
1.0
 50
2.000000000003044
 51
90.0
 73
     1
 72
     1
 10
-428.8207480046835
 20
-1532.958855655106
 11
-431.7955940869747
 21
-1532.958855655106
 72
     2
 10
-431.7955940869747
 20
-1533.958855655106
 40
1.0
 50
90.0
 51
175.0000000000005
 73
     1
 72
     1
 10
-432.7917887850665
 20
-1533.871699912359
 11
-433.666733435281
 21
-1543.958855655107
 72
     2
 10
-437.0388167244985
 20
-1547.650610561731
 40
5.0
 50
312.4088667058066
 51
358.306736849878
 73
     0
 72
     1
 10
-432.0410000176328
 20
-1547.502866984628
 11
-430.0779935402441
 21
-1611.737612848354
 72
     2
 10
-420.5820841879392
 20
-1611.458855655071
 40
9.5
 50
181.6814635271747
 51
270.0
 73
     1
 72
     1
 10
-420.5820841879392
 20
-1620.958855655071
 11
-407.8762941402545
 21
-1620.958855655071
 72
     2
 10
-407.8762941402545
 20
-1621.958855655071
 40
1.0
 50
270.0
 51
357.9999999999961
 73
     0
 72
     1
 10
-406.8769033132355
 20
-1621.923956158368
 11
-406.2458920278243
 21
-1639.993755151773
 72
     2
 10
-405.2465012008054
 20
-1639.958855655071
 40
1.0
 50
182.000000000003
 51
270.0
 73
     1
 72
     1
 10
-405.2465012008054
 20
-1640.958855655071
 11
-396.2176053654473
 21
-1640.958855655071
 72
     1
 10
-396.2176053654473
 20
-1640.958855655071
 11
-395.764488027072
 21
-1626.459100827061
 72
     2
 10
-392.4106053654477
 20
-1623.458855655071
 40
4.5
 50
138.1854968655467
 51
180.0
 73
     0
 72
     1
 10
-396.9106053654475
 20
-1623.458855655071
 11
-396.9106053654475
 21
-1621.458855655071
 72
     2
 10
-394.4106053654477
 20
-1621.458855655071
 40
2.5
 50
180.0
 51
270.0
 73
     0
 72
     1
 10
-394.4106053654477
 20
-1618.958855655071
 11
-394.2813527428993
 21
-1618.958855655071
 72
     2
 10
-394.2813527428993
 20
-1617.458855655071
 40
1.5
 50
270.0
 51
362.0000000000034
 73
     1
 72
     1
 10
-392.7822665023705
 20
-1617.406506410017
 11
-394.8769033132355
 21
-1557.423956158368
 72
     2
 10
-395.8762941402545
 20
-1557.458855655071
 40
1.0
 50
2.000000000003953
 51
90.0
 73
     1
 72
     1
 10
-395.8762941402545
 20
-1556.458855655071
 11
-397.9449165906401
 21
-1556.458855655071
 72
     2
 10
-397.9449165906401
 20
-1557.45885565507
 40
1.0
 50
90.0
 51
177.999999999997
 73
     1
 72
     1
 10
-398.9443074176595
 20
-1557.423956158368
 11
-400.8373412738922
 21
-1611.633353138583
 72
     2
 10
-405.8342954089878
 20
-1611.458855655071
 40
5.0
 50
1.999999999998382
 51
90.0
 73
     0
 72
     1
 10
-405.8342954089878
 20
-1616.458855655071
 11
-416.1874641168404
 21
-1616.458855655071
 72
     1
 10
-416.1871528916474
 20
-1616.458855655071
 11
-421.0821614914119
 21
-1616.458855655071
 72
     1
 10
-421.0821614914119
 20
-1616.458855655071
 11
-420.5821614914119
 21
-1616.458855655071
 72
     2
 10
-420.5821614914119
 20
-1611.458855655071
 40
5.0
 50
90.0
 51
178.0000000000016
 73
     0
 72
     1
 10
-425.5791156265075
 20
-1611.633353138583
 11
-426.7887570430391
 21
-1569.993755151773
 72
     1
 10
-426.7887570430391
 20
-1569.993755151773
 11
-427.8213571776575
 21
-1533.923956158367
 97
        0
 92
        0
 93
       12
 72
     2
 10
-418.9106053654475
 20
-1573.458855655071
 40
0.5
 50
2.000000000003953
 51
90.0
 73
     1
 72
     1
 10
-418.9106053654475
 20
-1572.958855655071
 11
-424.160909951938
 21
-1572.958855655071
 72
     2
 10
-424.160909951938
 20
-1572.458855655071
 40
0.5
 50
90.0
 51
177.9999999999961
 73
     0
 72
     1
 10
-424.6606053654475
 20
-1572.476305403422
 11
-424.6967448522189
 21
-1571.441405906719
 72
     2
 10
-425.1964402657284
 20
-1571.45885565507
 40
0.5
 50
2.000000000003953
 51
90.0
 73
     1
 72
     1
 10
-425.1964402657284
 20
-1570.95885565507
 11
-425.7893662160202
 21
-1570.958855655071
 72
     2
 10
-425.7893662160202
 20
-1569.958855655071
 40
1.0
 50
90.0
 51
178.0000000000091
 73
     0
 72
     1
 10
-426.7887570430391
 20
-1569.993755151773
 11
-425.5791156265075
 21
-1611.633353138583
 72
     2
 10
-420.5821614914119
 20
-1611.458855655071
 40
5.0
 50
181.9999999999984
 51
270.0
 73
     1
 72
     1
 10
-420.5821614914119
 20
-1616.458855655071
 11
-416.1871528916474
 21
-1616.458855655071
 72
     2
 10
-416.1874641168404
 20
-1615.458855655071
 40
1.0
 50
90.0
 51
178.00000000001
 73
     0
 72
     1
 10
-417.1868549438598
 20
-1615.493755151773
 11
-418.410909951938
 21
-1573.441405906719
 97
        0
 92
        0
 93
       28
 72
     2
 10
-324.9449165906406
 20
-1621.958855655071
 40
1.0
 50
182.0000000000039
 51
270.0
 73
     0
 72
     1
 10
-324.9449165906406
 20
-1620.958855655071
 11
-312.2391265429558
 21
-1620.958855655071
 72
     2
 10
-312.2391265429558
 20
-1611.458855655071
 40
9.5
 50
270.0
 51
358.3185364728253
 73
     1
 72
     1
 10
-302.743217190651
 20
-1611.737612848354
 11
-301.1893683479736
 21
-1558.958855655071
 72
     1
 10
-301.1893683479736
 20
-1558.958855655071
 11
-301.18765903601
 21
-1558.92930693965
 72
     2
 10
-300.188095694645
 20
-1558.958855655071
 40
1.0
 50
181.6932631501279
 51
242.7661253627942
 73
     0
 72
     2
 10
-301.1033430774517
 20
-1557.180563713834
 40
1.0
 50
297.233874637235
 51
358.0000000000091
 73
     1
 72
     1
 10
-300.1039522504327
 20
-1557.215463210537
 11
-299.1544772956129
 21
-1543.958855655071
 72
     1
 10
-299.1544772956129
 20
-1543.958855655071
 11
-300.0288621466007
 21
-1533.949887720489
 72
     1
 10
-300.0279593509406
 20
-1533.949808736103
 11
-304.9743593105411
 21
-1534.382562657833
 72
     1
 10
-304.9743593105411
 20
-1534.382562657833
 11
-307.2420951043875
 21
-1611.633353138583
 72
     2
 10
-312.2390492394832
 20
-1611.458855655071
 40
5.0
 50
1.999999999998382
 51
90.0
 73
     0
 72
     1
 10
-312.2390492394832
 20
-1616.458855655071
 11
-326.9869153219072
 21
-1616.458855655071
 72
     2
 10
-326.9869153219072
 20
-1611.458855655071
 40
5.0
 50
90.0
 51
178.0000000000016
 73
     0
 72
     1
 10
-331.9838694570028
 20
-1611.633353138583
 11
-333.8769033132355
 21
-1557.423956158368
 72
     2
 10
-334.8762941402549
 20
-1557.45885565507
 40
1.0
 50
2.000000000003044
 51
90.0
 73
     1
 72
     1
 10
-334.8762941402549
 20
-1556.458855655071
 11
-336.9449165906406
 21
-1556.458855655071
 72
     2
 10
-336.9449165906406
 20
-1557.458855655071
 40
1.0
 50
90.0
 51
177.9999999999961
 73
     1
 72
     1
 10
-337.9443074176595
 20
-1557.423956158368
 11
-340.0389442285248
 21
-1617.406506410017
 72
     2
 10
-338.5398579879959
 20
-1617.458855655071
 40
1.5
 50
177.9999999999967
 51
270.0
 73
     1
 72
     1
 10
-338.5398579879959
 20
-1618.958855655071
 11
-338.4106053654475
 21
-1618.958855655071
 72
     2
 10
-338.4106053654475
 20
-1621.458855655071
 40
2.5
 50
270.0
 51
360.0
 73
     0
 72
     1
 10
-335.9106053654475
 20
-1621.458855655071
 11
-335.9106053654475
 21
-1623.458855655071
 72
     2
 10
-340.4106053654475
 20
-1623.458855655071
 40
4.5
 50
0.0
 51
41.81450313445333
 73
     0
 72
     1
 10
-337.056722703823
 20
-1626.459100827062
 11
-336.6036053654477
 21
-1640.958855655071
 72
     1
 10
-336.6036053654477
 20
-1640.958855655071
 11
-327.5747095300896
 21
-1640.958855655071
 72
     2
 10
-327.5747095300896
 20
-1639.958855655071
 40
1.0
 50
270.0
 51
357.999999999997
 73
     1
 72
     1
 10
-326.5753187030707
 20
-1639.993755151773
 11
-325.9443074176595
 21
-1621.923956158368
 97
        0
 75
     0
 76
     0
 52
135.0
 41
4.0
 77
     0
 78
     1
 53
135.0
 43
0.0
 44
0.0
 45
-2.82842712474619
 46
-2.82842712474619
 79
     0
 98
        1
 10
0.0
 20
0.0
  0
DIMENSION
  5
335
330
1F
100
AcDbEntity
  8
1
  6
ByBlock
 62
     3
100
AcDbDimension
  2
_D8
 10
-299.1544772956129
 20
-1673.28854174508
 30
0.0
 11
-366.4106053654469
 21
-1669.28854174508
 31
0.0
 70
   160
  1
φ１３５
 71
     5
 42
-1.0
 52
90.0
  3
DIMSTYEX_19
100
AcDbAlignedDimension
 13
-433.666733435281
 23
-1543.958855655107
 33
0.0
 14
-299.1544772956129
 24
-1543.95885565507
 34
0.0
100
AcDbRotatedDimension
1001
ACAD
1000
DSTYLE
1002
{
1070
   343
1005
88
1070
   344
1005
88
1070
    43
1040
108.9163935631128
1070
   173
1070
     1
1070
   272
1070
     3
1070
   340
1005
83
1070
   140
1040
3.584
1002
}
  0
DIMENSION
  5
342
330
1F
100
AcDbEntity
  8
1
  6
ByBlock
 62
     3
100
AcDbDimension
  2
_D9
 10
-509.7854526333728
 20
-1532.958855655106
 30
0.0
 11
-513.7854526333729
 21
-1586.958855655088
 31
0.0
 70
   160
 71
     5
 42
-1.0
 52
90.0
  3
DIMSTYEX_18
100
AcDbAlignedDimension
 13
-405.2465012008055
 23
-1640.958855655071
 33
0.0
 14
-431.7955940869747
 24
-1532.958855655106
 34
0.0
 50
90.0
100
AcDbRotatedDimension
1001
ACAD
1000
DSTYLE
1002
{
1070
   343
1005
88
1070
   344
1005
88
1070
    43
1040
0.0
1070
   173
1070
     1
1070
   272
1070
     3
1070
   340
1005
83
1070
   140
1040
3.584
1002
}
  0
INSERT
  5
3FB
330
1F
100
AcDbEntity
  8
1
  6
Continuous
 62
     7
100
AcDbBlockReference
  2
BLK2
 10
-366.4106053654475
 20
-1556.458855655071
 30
0.0
  0
ENDSEC
  0
SECTION
  2
OBJECTS
  0
DICTIONARY
  5
C
330
0
100
AcDbDictionary
281
     1
  3
ACAD_GROUP
350
D
  3
ACAD_LAYOUT
350
1A
  3
ACAD_MATERIAL
350
43
  3
ACAD_MLEADERSTYLE
350
6B
  3
ACAD_MLINESTYLE
350
17
  3
ACAD_PLOTSETTINGS
350
19
  3
ACAD_PLOTSTYLENAME
350
E
  3
ACAD_SCALELIST
350
47
  3
ACAD_TABLESTYLE
350
69
  3
ACAD_VISUALSTYLE
350
2A
  3
AcDbVariableDictionary
350
40B
  0
DICTIONARY
  5
412
330
8
100
AcDbDictionary
280
     1
281
     1
  3
ACAD_XREC_ROUNDTRIP
360
413
  0
DICTIONARY
  5
D
102
{ACAD_REACTORS
330
C
102
}
330
C
100
AcDbDictionary
281
     1
  0
DICTIONARY
  5
1A
102
{ACAD_REACTORS
330
C
102
}
330
C
100
AcDbDictionary
281
     1
  3
Layout1
350
1E
  3
Model
350
22
  0
DICTIONARY
  5
43
102
{ACAD_REACTORS
330
C
102
}
330
C
100
AcDbDictionary
281
     1
  3
ByBlock
350
45
  3
ByLayer
350
44
  3
Global
350
46
  0
DICTIONARY
  5
6B
102
{ACAD_REACTORS
330
C
102
}
330
C
100
AcDbDictionary
281
     1
  3
Standard
350
6C
  0
DICTIONARY
  5
17
102
{ACAD_REACTORS
330
C
102
}
330
C
100
AcDbDictionary
281
     1
  3
Standard
350
18
  0
DICTIONARY
  5
19
102
{ACAD_REACTORS
330
C
102
}
330
C
100
AcDbDictionary
281
     1
  0
ACDBDICTIONARYWDFLT
  5
E
102
{ACAD_REACTORS
330
C
102
}
330
C
100
AcDbDictionary
281
     1
  3
Normal
350
F
100
AcDbDictionaryWithDefault
340
F
  0
DICTIONARY
  5
47
102
{ACAD_REACTORS
330
C
102
}
330
C
100
AcDbDictionary
281
     1
  3
A0
350
48
  3
A1
350
49
  3
A2
350
4A
  3
A3
350
4B
  3
A4
350
4C
  3
A5
350
4D
  3
A6
350
4E
  3
A7
350
4F
  3
A8
350
50
  3
A9
350
51
  3
B0
350
52
  3
B1
350
53
  3
B2
350
54
  3
B3
350
55
  3
B4
350
56
  3
B5
350
57
  3
B6
350
58
  3
B7
350
59
  3
B8
350
5A
  3
B9
350
5B
  3
C0
350
5C
  3
C1
350
5D
  3
C2
350
5E
  3
C3
350
5F
  3
C4
350
60
  3
C5
350
61
  3
C6
350
62
  3
C7
350
63
  3
C8
350
64
  3
C9
350
65
  3
D0
350
66
  3
D1
350
67
  3
D2
350
68
  0
DICTIONARY
  5
69
102
{ACAD_REACTORS
330
C
102
}
330
C
100
AcDbDictionary
281
     1
  3
Standard
350
6A
  0
DICTIONARY
  5
2A
102
{ACAD_REACTORS
330
C
102
}
330
C
100
AcDbDictionary
281
     1
  3
2dWireframe
350
2F
  3
Basic
350
32
  3
Brighten
350
36
  3
ColorChange
350
3A
  3
Conceptual
350
34
  3
Dim
350
35
  3
EdgeColorOff
350
3D
  3
Facepattern
350
39
  3
Flat
350
2B
  3
FlatWithEdges
350
2C
  3
Gouraud
350
2D
  3
GouraudWithEdges
350
2E
  3
Hidden
350
31
  3
JitterOff
350
3B
  3
Linepattern
350
38
  3
OverhangOff
350
3C
  3
Realistic
350
33
  3
Shaded
350
42
  3
Shaded with edges
350
41
  3
Shades of Gray
350
3E
  3
Sketchy
350
3F
  3
Thicken
350
37
  3
Wireframe
350
30
  3
X-Ray
350
40
  0
DICTIONARY
  5
40B
102
{ACAD_REACTORS
330
C
102
}
330
C
100
AcDbDictionary
281
     1
  3
CANNOSCALE
350
414
  3
CMLEADERSTYLE
350
40D
  3
CTABLESTYLE
350
40C
  3
DIMASSOC
350
410
  3
HIDETEXT
350
411
  3
MSLTSCALE
350
415
  0
XRECORD
  5
413
102
{ACAD_REACTORS
330
412
102
}
330
412
100
AcDbXrecord
280
     1
102
VTR_0.000_0.000_1.000_1.000_VISUALSTYLE
340
2F
102
VTR_0.000_0.000_1.000_1.000_GRIDDISPLAY
 70
     3
102
VTR_0.000_0.000_1.000_1.000_GRIDMAJOR
 70
     5
102
VTR_0.000_0.000_1.000_1.000_DEFAULTLIGHTING
280
     1
102
VTR_0.000_0.000_1.000_1.000_DEFAULTLIGHTINGTYPE
 70
     1
102
VTR_0.000_0.000_1.000_1.000_BRIGHTNESS
141
0.0
102
VTR_0.000_0.000_1.000_1.000_CONTRAST
142
0.0
  0
LAYOUT
  5
1E
102
{ACAD_REACTORS
330
1A
102
}
330
1A
100
AcDbPlotSettings
  1

  2
none_device
  4

  6

 40
0.0
 41
0.0
 42
0.0
 43
0.0
 44
0.0
 45
0.0
 46
0.0
 47
0.0
 48
0.0
 49
0.0
140
0.0
141
0.0
142
1.0
143
1.0
 70
   688
 72
     0
 73
     0
 74
     5
  7

 75
    16
147
1.0
148
0.0
149
0.0
100
AcDbLayout
  1
Layout1
 70
     1
 71
     1
 10
0.0
 20
0.0
 11
12.0
 21
9.0
 12
0.0
 22
0.0
 32
0.0
 14
1.000000000000000E+20
 24
1.000000000000000E+20
 34
1.000000000000000E+20
 15
-1.000000000000000E+20
 25
-1.000000000000000E+20
 35
-1.000000000000000E+20
146
0.0
 13
0.0
 23
0.0
 33
0.0
 16
1.0
 26
0.0
 36
0.0
 17
0.0
 27
1.0
 37
0.0
 76
     0
330
1B
  0
LAYOUT
  5
22
102
{ACAD_REACTORS
330
1A
102
}
330
1A
100
AcDbPlotSettings
  1

  2
none_device
  4
Letter_(8.50_x_11.00_Inches)
  6

 40
6.35
 41
6.35
 42
6.35000508
 43
6.35000508
 44
215.9
 45
279.4
 46
0.0
 47
0.0
 48
0.0
 49
0.0
140
0.0
141
0.0
142
1.0
143
1.0
 70
  1712
 72
     0
 73
     0
 74
     0
  7

 75
     0
147
1.0
148
0.0
149
0.0
100
AcDbLayout
  1
Model
 70
     1
 71
     0
 10
-641.6626783413894
 20
-1879.991621020336
 11
-87.66267834138944
 21
-1079.991621020336
 12
-539.8392676451231
 22
-1345.581933835674
 32
0.0
 14
-641.6626783413894
 24
-1879.991621020336
 34
0.0
 15
-87.66267834138944
 25
-1079.991621020336
 35
0.0
146
0.0
 13
0.0
 23
0.0
 33
0.0
 16
1.0
 26
0.0
 36
0.0
 17
0.0
 27
1.0
 37
0.0
 76
     0
330
1F
331
29
  0
MATERIAL
  5
45
102
{ACAD_REACTORS
330
43
102
}
102
{ACAD_XDICTIONARY
360
448
102
}
330
43
100
AcDbMaterial
  1
ByBlock
  0
MATERIAL
  5
44
102
{ACAD_REACTORS
330
43
102
}
102
{ACAD_XDICTIONARY
360
446
102
}
330
43
100
AcDbMaterial
  1
ByLayer
  0
MATERIAL
  5
46
102
{ACAD_REACTORS
330
43
102
}
102
{ACAD_XDICTIONARY
360
44A
102
}
330
43
100
AcDbMaterial
  1
Global
  0
MLEADERSTYLE
  5
6C
102
{ACAD_REACTORS
330
6B
102
}
102
{ACAD_XDICTIONARY
360
44D
102
}
330
6B
100
AcDbMLeaderStyle
170
     2
171
     1
172
     0
 90
        2
 40
0.0
 41
0.0
173
     1
 91
-1056964608
340
14
 92
       -2
290
     1
 42
0.09
291
     1
 43
0.36
  3
Standard
341
0
 44
0.18
300

342
11
174
     1
178
     6
175
     1
176
     0
 93
-1056964608
 45
0.18
292
     0
297
     0
 46
0.18
343
0
 94
-1056964608
 47
1.0
 49
1.0
140
1.0
293
     1
141
0.0
294
     1
177
     0
142
1.0
295
     0
296
     0
143
0.125
1001
ACAD_MLEADERVER
1070
     2
  0
MLINESTYLE
  5
18
102
{ACAD_REACTORS
330
17
102
}
330
17
100
AcDbMlineStyle
  2
Standard
 70
     0
  3

 62
   256
 51
90.0
 52
90.0
 71
     2
 49
0.5
 62
   256
  6
BYLAYER
 49
-0.5
 62
   256
  6
BYLAYER
  0
ACDBPLACEHOLDER
  5
F
102
{ACAD_REACTORS
330
E
102
}
330
E
  0
SCALE
  5
48
102
{ACAD_REACTORS
330
47
102
}
330
47
100
AcDbScale
 70
     0
300
1:1
140
1.0
141
1.0
290
     1
  0
SCALE
  5
49
102
{ACAD_REACTORS
330
47
102
}
330
47
100
AcDbScale
 70
     0
300
1:2
140
1.0
141
2.0
290
     0
  0
SCALE
  5
4A
102
{ACAD_REACTORS
330
47
102
}
330
47
100
AcDbScale
 70
     0
300
1:4
140
1.0
141
4.0
290
     0
  0
SCALE
  5
4B
102
{ACAD_REACTORS
330
47
102
}
330
47
100
AcDbScale
 70
     0
300
1:5
140
1.0
141
5.0
290
     0
  0
SCALE
  5
4C
102
{ACAD_REACTORS
330
47
102
}
330
47
100
AcDbScale
 70
     0
300
1:8
140
1.0
141
8.0
290
     0
  0
SCALE
  5
4D
102
{ACAD_REACTORS
330
47
102
}
330
47
100
AcDbScale
 70
     0
300
1:10
140
1.0
141
10.0
290
     0
  0
SCALE
  5
4E
102
{ACAD_REACTORS
330
47
102
}
330
47
100
AcDbScale
 70
     0
300
1:16
140
1.0
141
16.0
290
     0
  0
SCALE
  5
4F
102
{ACAD_REACTORS
330
47
102
}
330
47
100
AcDbScale
 70
     0
300
1:20
140
1.0
141
20.0
290
     0
  0
SCALE
  5
50
102
{ACAD_REACTORS
330
47
102
}
330
47
100
AcDbScale
 70
     0
300
1:30
140
1.0
141
30.0
290
     0
  0
SCALE
  5
51
102
{ACAD_REACTORS
330
47
102
}
330
47
100
AcDbScale
 70
     0
300
1:40
140
1.0
141
40.0
290
     0
  0
SCALE
  5
52
102
{ACAD_REACTORS
330
47
102
}
330
47
100
AcDbScale
 70
     0
300
1:50
140
1.0
141
50.0
290
     0
  0
SCALE
  5
53
102
{ACAD_REACTORS
330
47
102
}
330
47
100
AcDbScale
 70
     0
300
1:100
140
1.0
141
100.0
290
     0
  0
SCALE
  5
54
102
{ACAD_REACTORS
330
47
102
}
330
47
100
AcDbScale
 70
     0
300
2:1
140
2.0
141
1.0
290
     0
  0
SCALE
  5
55
102
{ACAD_REACTORS
330
47
102
}
330
47
100
AcDbScale
 70
     0
300
4:1
140
4.0
141
1.0
290
     0
  0
SCALE
  5
56
102
{ACAD_REACTORS
330
47
102
}
330
47
100
AcDbScale
 70
     0
300
8:1
140
8.0
141
1.0
290
     0
  0
SCALE
  5
57
102
{ACAD_REACTORS
330
47
102
}
330
47
100
AcDbScale
 70
     0
300
10:1
140
10.0
141
1.0
290
     0
  0
SCALE
  5
58
102
{ACAD_REACTORS
330
47
102
}
330
47
100
AcDbScale
 70
     0
300
100:1
140
100.0
141
1.0
290
     0
  0
SCALE
  5
59
102
{ACAD_REACTORS
330
47
102
}
330
47
100
AcDbScale
 70
     0
300
1/128" = 1'-0"
140
0.0078125
141
12.0
290
     0
  0
SCALE
  5
5A
102
{ACAD_REACTORS
330
47
102
}
330
47
100
AcDbScale
 70
     0
300
1/64" = 1'-0"
140
0.015625
141
12.0
290
     0
  0
SCALE
  5
5B
102
{ACAD_REACTORS
330
47
102
}
330
47
100
AcDbScale
 70
     0
300
1/32" = 1'-0"
140
0.03125
141
12.0
290
     0
  0
SCALE
  5
5C
102
{ACAD_REACTORS
330
47
102
}
330
47
100
AcDbScale
 70
     0
300
1/16" = 1'-0"
140
0.0625
141
12.0
290
     0
  0
SCALE
  5
5D
102
{ACAD_REACTORS
330
47
102
}
330
47
100
AcDbScale
 70
     0
300
3/32" = 1'-0"
140
0.09375
141
12.0
290
     0
  0
SCALE
  5
5E
102
{ACAD_REACTORS
330
47
102
}
330
47
100
AcDbScale
 70
     0
300
1/8" = 1'-0"
140
0.125
141
12.0
290
     0
  0
SCALE
  5
5F
102
{ACAD_REACTORS
330
47
102
}
330
47
100
AcDbScale
 70
     0
300
3/16" = 1'-0"
140
0.1875
141
12.0
290
     0
  0
SCALE
  5
60
102
{ACAD_REACTORS
330
47
102
}
330
47
100
AcDbScale
 70
     0
300
1/4" = 1'-0"
140
0.25
141
12.0
290
     0
  0
SCALE
  5
61
102
{ACAD_REACTORS
330
47
102
}
330
47
100
AcDbScale
 70
     0
300
3/8" = 1'-0"
140
0.375
141
12.0
290
     0
  0
SCALE
  5
62
102
{ACAD_REACTORS
330
47
102
}
330
47
100
AcDbScale
 70
     0
300
1/2" = 1'-0"
140
0.5
141
12.0
290
     0
  0
SCALE
  5
63
102
{ACAD_REACTORS
330
47
102
}
330
47
100
AcDbScale
 70
     0
300
3/4" = 1'-0"
140
0.75
141
12.0
290
     0
  0
SCALE
  5
64
102
{ACAD_REACTORS
330
47
102
}
330
47
100
AcDbScale
 70
     0
300
1" = 1'-0"
140
1.0
141
12.0
290
     0
  0
SCALE
  5
65
102
{ACAD_REACTORS
330
47
102
}
330
47
100
AcDbScale
 70
     0
300
1-1/2" = 1'-0"
140
1.5
141
12.0
290
     0
  0
SCALE
  5
66
102
{ACAD_REACTORS
330
47
102
}
330
47
100
AcDbScale
 70
     0
300
3" = 1'-0"
140
3.0
141
12.0
290
     0
  0
SCALE
  5
67
102
{ACAD_REACTORS
330
47
102
}
330
47
100
AcDbScale
 70
     0
300
6" = 1'-0"
140
6.0
141
12.0
290
     0
  0
SCALE
  5
68
102
{ACAD_REACTORS
330
47
102
}
330
47
100
AcDbScale
 70
     0
300
1'-0" = 1'-0"
140
12.0
141
12.0
290
     0
  0
TABLESTYLE
  5
6A
102
{ACAD_REACTORS
330
69
102
}
330
69
100
AcDbTableStyle
  3
Standard
 70
     0
 71
     0
 40
0.06
 41
0.06
280
     0
281
     0
  7
Standard
140
0.18
170
     2
 62
     0
 63
   257
283
     0
274
    -2
284
     1
 64
     0
275
    -2
285
     1
 65
     0
276
    -2
286
     1
 66
     0
277
    -2
287
     1
 67
     0
278
    -2
288
     1
 68
     0
279
    -2
289
     1
 69
     0
  7
Standard
140
0.25
170
     5
 62
     0
 63
   257
283
     0
274
    -2
284
     1
 64
     0
275
    -2
285
     1
 65
     0
276
    -2
286
     1
 66
     0
277
    -2
287
     1
 67
     0
278
    -2
288
     1
 68
     0
279
    -2
289
     1
 69
     0
  7
Standard
140
0.18
170
     5
 62
     0
 63
   257
283
     0
274
    -2
284
     1
 64
     0
275
    -2
285
     1
 65
     0
276
    -2
286
     1
 66
     0
277
    -2
287
     1
 67
     0
278
    -2
288
     1
 68
     0
279
    -2
289
     1
 69
     0
  0
VISUALSTYLE
  5
2F
102
{ACAD_REACTORS
330
2A
102
}
102
{ACAD_XDICTIONARY
360
41E
102
}
330
2A
100
AcDbVisualStyle
  2
2dWireframe
 70
     4
 71
     0
 72
     2
 73
     0
 90
        0
 40
0.6
 41
30.0
 62
     5
 63
     7
 74
     1
 91
        4
 64
     7
 65
   257
 75
     1
175
     1
 42
1.0
 92
        0
 66
   257
 43
1.0
 76
     1
 77
     6
 78
     2
 67
     7
 79
     5
170
     0
171
     0
290
     0
174
     0
 93
        1
 44
0.0
173
     0
291
     0
 45
0.0
1001
ACAD
1000
AcDbSavedByObjectVersion
1070
     0
  0
VISUALSTYLE
  5
32
102
{ACAD_REACTORS
330
2A
102
}
102
{ACAD_XDICTIONARY
360
424
102
}
330
2A
100
AcDbVisualStyle
  2
Basic
 70
     7
 71
     1
 72
     0
 73
     1
 90
        0
 40
0.6
 41
30.0
 62
     5
 63
     7
 74
     0
 91
        4
 64
     7
 65
   257
 75
     1
175
     1
 42
1.0
 92
        8
 66
     7
 43
1.0
 76
     1
 77
     6
 78
     2
 67
     7
 79
     5
170
     0
171
     0
290
     0
174
     0
 93
        1
 44
0.0
173
     0
291
     1
 45
0.0
1001
ACAD
1000
AcDbSavedByObjectVersion
1070
     0
  0
VISUALSTYLE
  5
36
102
{ACAD_REACTORS
330
2A
102
}
102
{ACAD_XDICTIONARY
360
42C
102
}
330
2A
100
AcDbVisualStyle
  2
Brighten
 70
    12
 71
     2
 72
     2
 73
     0
 90
        0
 40
0.6
 41
30.0
 62
     5
 63
     7
 74
     1
 91
        4
 64
     7
 65
   257
 75
     1
175
     1
 42
1.0
 92
        8
 66
     7
 43
1.0
 76
     1
 77
     6
 78
     2
 67
     7
 79
     5
170
     0
171
     0
290
     0
174
     0
 93
        1
 44
50.0
173
     0
291
     1
 45
0.0
1001
ACAD
1000
AcDbSavedByObjectVersion
1070
     0
  0
VISUALSTYLE
  5
3A
102
{ACAD_REACTORS
330
2A
102
}
102
{ACAD_XDICTIONARY
360
434
102
}
330
2A
100
AcDbVisualStyle
  2
ColorChange
 70
    16
 71
     2
 72
     2
 73
     3
 90
        0
 40
0.6
 41
30.0
 62
     5
 63
     8
 74
     1
 91
        4
 64
     7
 65
   257
 75
     1
175
     1
 42
1.0
 92
        8
 66
     8
 43
1.0
 76
     1
 77
     6
 78
     2
 67
     7
 79
     5
170
     0
171
     0
290
     0
174
     0
 93
        1
 44
0.0
173
     0
291
     1
 45
0.0
1001
ACAD
1000
AcDbSavedByObjectVersion
1070
     0
  0
VISUALSTYLE
  5
34
102
{ACAD_REACTORS
330
2A
102
}
102
{ACAD_XDICTIONARY
360
428
102
}
330
2A
100
AcDbVisualStyle
  2
Conceptual
 70
     9
 71
     3
 72
     2
 73
     0
 90
        0
 40
0.6
 41
30.0
 62
     5
 63
     7
 74
     2
 91
        2
 64
     7
 65
   257
 75
     1
175
     1
 42
179.0
 92
        8
 66
     7
 43
1.0
 76
     1
 77
     6
 78
     2
 67
     7
 79
     3
170
     0
171
     0
290
     0
174
     0
 93
        1
 44
0.0
173
     0
291
     0
 45
0.0
1001
ACAD
1000
AcDbSavedByObjectVersion
1070
     0
  0
VISUALSTYLE
  5
35
102
{ACAD_REACTORS
330
2A
102
}
102
{ACAD_XDICTIONARY
360
42A
102
}
330
2A
100
AcDbVisualStyle
  2
Dim
 70
    11
 71
     2
 72
     2
 73
     0
 90
        0
 40
0.6
 41
30.0
 62
     5
 63
     7
 74
     1
 91
        4
 64
     7
 65
   257
 75
     1
175
     1
 42
1.0
 92
        8
 66
     7
 43
1.0
 76
     1
 77
     6
 78
     2
 67
     7
 79
     5
170
     0
171
     0
290
     0
174
     0
 93
        1
 44
-50.0
173
     0
291
     1
 45
0.0
1001
ACAD
1000
AcDbSavedByObjectVersion
1070
     0
  0
VISUALSTYLE
  5
3D
102
{ACAD_REACTORS
330
2A
102
}
102
{ACAD_XDICTIONARY
360
43A
102
}
330
2A
100
AcDbVisualStyle
  2
EdgeColorOff
 70
    22
 71
     2
 72
     2
 73
     0
 90
        0
 40
0.6
 41
30.0
 62
     5
 63
     7
 74
     1
 91
        4
 64
     7
 65
   257
 75
     1
175
     1
 42
1.0
 92
        8
 66
     7
 43
1.0
 76
     1
 77
     6
 78
     2
 67
     7
 79
     5
170
     0
171
     0
290
     0
174
     0
 93
        1
 44
0.0
173
     0
291
     1
 45
0.0
1001
ACAD
1000
AcDbSavedByObjectVersion
1070
     0
  0
VISUALSTYLE
  5
39
102
{ACAD_REACTORS
330
2A
102
}
102
{ACAD_XDICTIONARY
360
432
102
}
330
2A
100
AcDbVisualStyle
  2
Facepattern
 70
    15
 71
     2
 72
     2
 73
     0
 90
        0
 40
0.6
 41
30.0
 62
     5
 63
     7
 74
     1
 91
        4
 64
     7
 65
   257
 75
     1
175
     1
 42
1.0
 92
        8
 66
     7
 43
1.0
 76
     1
 77
     6
 78
     2
 67
     7
 79
     5
170
     0
171
     0
290
     0
174
     0
 93
        1
 44
0.0
173
     0
291
     1
 45
0.0
1001
ACAD
1000
AcDbSavedByObjectVersion
1070
     0
  0
VISUALSTYLE
  5
2B
102
{ACAD_REACTORS
330
2A
102
}
102
{ACAD_XDICTIONARY
360
416
102
}
330
2A
100
AcDbVisualStyle
  2
Flat
 70
     0
 71
     2
 72
     1
 73
     1
 90
        2
 40
0.6
 41
30.0
 62
     5
 63
     7
 74
     0
 91
        0
 64
     7
 65
   257
 75
     1
175
     1
 42
1.0
 92
        8
 66
     7
 43
1.0
 76
     1
 77
     6
 78
     2
 67
     7
 79
     5
170
     0
171
     0
290
     0
174
     0
 93
       13
 44
0.0
173
     0
291
     1
 45
0.0
1001
ACAD
1000
AcDbSavedByObjectVersion
1070
     0
  0
VISUALSTYLE
  5
2C
102
{ACAD_REACTORS
330
2A
102
}
102
{ACAD_XDICTIONARY
360
418
102
}
330
2A
100
AcDbVisualStyle
  2
FlatWithEdges
 70
     1
 71
     2
 72
     1
 73
     1
 90
        2
 40
0.6
 41
30.0
 62
     5
 63
     7
 74
     1
 91
        0
 64
     7
 65
   257
 75
     1
175
     1
 42
1.0
 92
        0
 66
   257
 43
1.0
 76
     1
 77
     6
 78
     2
 67
     7
 79
     5
170
     0
171
     0
290
     0
174
     0
 93
       13
 44
0.0
173
     0
291
     1
 45
0.0
1001
ACAD
1000
AcDbSavedByObjectVersion
1070
     0
  0
VISUALSTYLE
  5
2D
102
{ACAD_REACTORS
330
2A
102
}
102
{ACAD_XDICTIONARY
360
41A
102
}
330
2A
100
AcDbVisualStyle
  2
Gouraud
 70
     2
 71
     2
 72
     2
 73
     1
 90
        2
 40
0.6
 41
30.0
 62
     5
 63
     7
 74
     0
 91
        0
 64
     7
 65
   257
 75
     1
175
     1
 42
1.0
 92
        0
 66
     7
 43
1.0
 76
     1
 77
     6
 78
     2
 67
     7
 79
     5
170
     0
171
     0
290
     0
174
     0
 93
       13
 44
0.0
173
     0
291
     1
 45
0.0
1001
ACAD
1000
AcDbSavedByObjectVersion
1070
     0
  0
VISUALSTYLE
  5
2E
102
{ACAD_REACTORS
330
2A
102
}
102
{ACAD_XDICTIONARY
360
41C
102
}
330
2A
100
AcDbVisualStyle
  2
GouraudWithEdges
 70
     3
 71
     2
 72
     2
 73
     1
 90
        2
 40
0.6
 41
30.0
 62
     5
 63
     7
 74
     1
 91
        0
 64
     7
 65
   257
 75
     1
175
     1
 42
1.0
 92
        0
 66
   257
 43
1.0
 76
     1
 77
     6
 78
     2
 67
     7
 79
     5
170
     0
171
     0
290
     0
174
     0
 93
       13
 44
0.0
173
     0
291
     1
 45
0.0
1001
ACAD
1000
AcDbSavedByObjectVersion
1070
     0
  0
VISUALSTYLE
  5
31
102
{ACAD_REACTORS
330
2A
102
}
102
{ACAD_XDICTIONARY
360
422
102
}
330
2A
100
AcDbVisualStyle
  2
Hidden
 70
     6
 71
     1
 72
     2
 73
     2
 90
        0
 40
0.6
 41
30.0
 62
     5
 63
     7
 74
     2
 91
        2
 64
     7
 65
   257
 75
     2
175
     1
 42
40.0
 92
        0
 66
   257
 43
1.0
 76
     1
 77
     6
 78
     2
 67
     7
 79
     3
170
     0
171
     0
290
     0
174
     0
 93
        1
 44
0.0
173
     0
291
     0
 45
0.0
1001
ACAD
1000
AcDbSavedByObjectVersion
1070
     0
  0
VISUALSTYLE
  5
3B
102
{ACAD_REACTORS
330
2A
102
}
102
{ACAD_XDICTIONARY
360
436
102
}
330
2A
100
AcDbVisualStyle
  2
JitterOff
 70
    20
 71
     2
 72
     2
 73
     0
 90
        0
 40
0.6
 41
30.0
 62
     5
 63
     7
 74
     1
 91
        4
 64
     7
 65
   257
 75
     1
175
     1
 42
1.0
 92
       10
 66
     7
 43
1.0
 76
     1
 77
     6
 78
     2
 67
     7
 79
     5
170
     0
171
     0
290
     0
174
     0
 93
        1
 44
0.0
173
     0
291
     1
 45
0.0
1001
ACAD
1000
AcDbSavedByObjectVersion
1070
     0
  0
VISUALSTYLE
  5
38
102
{ACAD_REACTORS
330
2A
102
}
102
{ACAD_XDICTIONARY
360
430
102
}
330
2A
100
AcDbVisualStyle
  2
Linepattern
 70
    14
 71
     2
 72
     2
 73
     0
 90
        0
 40
0.6
 41
30.0
 62
     5
 63
     7
 74
     1
 91
        4
 64
     7
 65
   257
 75
     7
175
     7
 42
1.0
 92
        8
 66
     7
 43
1.0
 76
     1
 77
     6
 78
     2
 67
     7
 79
     5
170
     0
171
     0
290
     0
174
     0
 93
        1
 44
0.0
173
     0
291
     1
 45
0.0
1001
ACAD
1000
AcDbSavedByObjectVersion
1070
     0
  0
VISUALSTYLE
  5
3C
102
{ACAD_REACTORS
330
2A
102
}
102
{ACAD_XDICTIONARY
360
438
102
}
330
2A
100
AcDbVisualStyle
  2
OverhangOff
 70
    21
 71
     2
 72
     2
 73
     0
 90
        0
 40
0.6
 41
30.0
 62
     5
 63
     7
 74
     1
 91
        4
 64
     7
 65
   257
 75
     1
175
     1
 42
1.0
 92
        9
 66
     7
 43
1.0
 76
     1
 77
     6
 78
     2
 67
     7
 79
     5
170
     0
171
     0
290
     0
174
     0
 93
        1
 44
0.0
173
     0
291
     1
 45
0.0
1001
ACAD
1000
AcDbSavedByObjectVersion
1070
     0
  0
VISUALSTYLE
  5
33
102
{ACAD_REACTORS
330
2A
102
}
102
{ACAD_XDICTIONARY
360
426
102
}
330
2A
100
AcDbVisualStyle
  2
Realistic
 70
     8
 71
     2
 72
     3
 73
     0
 90
        2
 40
0.6
 41
30.0
 62
     5
 63
     7
 74
     0
 91
        0
 64
     7
 65
   257
 75
     1
175
     1
 42
1.0
 92
        8
 66
   257
 43
1.0
 76
     1
 77
     6
 78
     2
 67
     7
 79
     3
170
     0
171
     0
290
     0
174
     0
 93
       13
 44
0.0
173
     0
291
     0
 45
0.0
1001
ACAD
1000
AcDbSavedByObjectVersion
1070
     0
  0
VISUALSTYLE
  5
42
102
{ACAD_REACTORS
330
2A
102
}
102
{ACAD_XDICTIONARY
360
444
102
}
330
2A
100
AcDbVisualStyle
  2
Shaded
 70
    27
 71
     2
 72
     2
 73
     1
 90
        2
 40
0.6
 41
30.0
 62
     5
 63
     7
 74
     0
 91
        4
 64
     7
 65
   257
 75
     1
175
     1
 42
1.0
 92
        8
 66
   257
 43
1.0
 76
     1
 77
     6
 78
     2
 67
     8
 79
     3
170
     0
171
     0
290
     0
174
     0
 93
        5
 44
0.0
173
     0
291
     0
 45
0.0
1001
ACAD
1000
AcDbSavedByObjectVersion
1070
     0
  0
VISUALSTYLE
  5
41
102
{ACAD_REACTORS
330
2A
102
}
102
{ACAD_XDICTIONARY
360
442
102
}
330
2A
100
AcDbVisualStyle
  2
Shaded with edges
 70
    26
 71
     2
 72
     2
 73
     1
 90
        2
 40
0.6
 41
30.0
 62
     5
 63
     7
 74
     1
 91
       10
 64
     7
 65
   257
 75
     2
175
     1
 42
1.0
 92
        8
 66
   257
 43
1.0
 76
     1
 77
     6
 78
     2
 67
     7
 79
     3
170
     0
171
     0
290
     0
174
     0
 93
        5
 44
0.0
173
     0
291
     0
 45
0.0
1001
ACAD
1000
AcDbSavedByObjectVersion
1070
     0
  0
VISUALSTYLE
  5
3E
102
{ACAD_REACTORS
330
2A
102
}
102
{ACAD_XDICTIONARY
360
43C
102
}
330
2A
100
AcDbVisualStyle
  2
Shades of Gray
 70
    23
 71
     2
 72
     2
 73
     3
 90
        0
 40
0.6
 41
30.0
 62
     5
 63
     7
 74
     2
 91
        2
 64
     7
 65
     7
 75
     1
175
     1
 42
40.0
 92
        8
 66
     7
 43
1.0
 76
     1
 77
     6
 78
     2
 67
     7
 79
     3
170
     0
171
     0
290
     0
174
     0
 93
        1
 44
0.0
173
     0
291
     0
 45
0.0
1001
ACAD
1000
AcDbSavedByObjectVersion
1070
     0
  0
VISUALSTYLE
  5
3F
102
{ACAD_REACTORS
330
2A
102
}
102
{ACAD_XDICTIONARY
360
43E
102
}
330
2A
100
AcDbVisualStyle
  2
Sketchy
 70
    24
 71
     1
 72
     2
 73
     2
 90
        0
 40
0.6
 41
30.0
 62
     5
 63
     7
 74
     2
 91
        2
 64
     7
 65
     7
 75
     1
175
     1
 42
40.0
 92
       11
 66
     7
 43
1.0
 76
     1
 77
     6
 78
     2
 67
     7
 79
     6
170
     0
171
     0
290
     0
174
     0
 93
        1
 44
0.0
173
     0
291
     0
 45
0.0
1001
ACAD
1000
AcDbSavedByObjectVersion
1070
     0
  0
VISUALSTYLE
  5
37
102
{ACAD_REACTORS
330
2A
102
}
102
{ACAD_XDICTIONARY
360
42E
102
}
330
2A
100
AcDbVisualStyle
  2
Thicken
 70
    13
 71
     2
 72
     2
 73
     0
 90
        0
 40
0.6
 41
30.0
 62
     5
 63
     7
 74
     1
 91
        4
 64
     7
 65
   257
 75
     1
175
     1
 42
1.0
 92
       12
 66
     7
 43
1.0
 76
     1
 77
     6
 78
     2
 67
     7
 79
     5
170
     0
171
     0
290
     0
174
     0
 93
        1
 44
0.0
173
     0
291
     1
 45
0.0
1001
ACAD
1000
AcDbSavedByObjectVersion
1070
     0
  0
VISUALSTYLE
  5
30
102
{ACAD_REACTORS
330
2A
102
}
102
{ACAD_XDICTIONARY
360
420
102
}
330
2A
100
AcDbVisualStyle
  2
Wireframe
 70
     5
 71
     0
 72
     2
 73
     0
 90
        0
 40
0.6
 41
30.0
 62
     5
 63
     7
 74
     1
 91
        4
 64
     7
 65
   257
 75
     1
175
     1
 42
1.0
 92
        0
 66
   257
 43
1.0
 76
     1
 77
     6
 78
     2
 67
     7
 79
     3
170
     0
171
     0
290
     0
174
     0
 93
        1
 44
0.0
173
     0
291
     0
 45
0.0
1001
ACAD
1000
AcDbSavedByObjectVersion
1070
     0
  0
VISUALSTYLE
  5
40
102
{ACAD_REACTORS
330
2A
102
}
102
{ACAD_XDICTIONARY
360
440
102
}
330
2A
100
AcDbVisualStyle
  2
X-Ray
 70
    25
 71
     2
 72
     2
 73
     1
 90
        1
 40
0.5
 41
30.0
 62
     5
 63
     7
 74
     1
 91
        0
 64
     7
 65
   257
 75
     1
175
     1
 42
1.0
 92
        8
 66
     7
 43
1.0
 76
     1
 77
     6
 78
     2
 67
     7
 79
     3
170
     0
171
     0
290
     0
174
     0
 93
       13
 44
0.0
173
     0
291
     0
 45
0.0
1001
ACAD
1000
AcDbSavedByObjectVersion
1070
     0
  0
DICTIONARYVAR
  5
414
102
{ACAD_REACTORS
330
40B
102
}
330
40B
100
DictionaryVariables
280
     0
  1
1:1
  0
DICTIONARYVAR
  5
40D
102
{ACAD_REACTORS
330
40B
102
}
330
40B
100
DictionaryVariables
280
     0
  1
Standard
  0
DICTIONARYVAR
  5
40C
102
{ACAD_REACTORS
330
40B
102
}
330
40B
100
DictionaryVariables
280
     0
  1
Standard
  0
DICTIONARYVAR
  5
410
102
{ACAD_REACTORS
330
40B
102
}
330
40B
100
DictionaryVariables
280
     0
  1
2
  0
DICTIONARYVAR
  5
411
102
{ACAD_REACTORS
330
40B
102
}
330
40B
100
DictionaryVariables
280
     0
  1
1
  0
DICTIONARYVAR
  5
415
102
{ACAD_REACTORS
330
40B
102
}
330
40B
100
DictionaryVariables
280
     0
  1
1
  0
DICTIONARY
  5
448
330
45
100
AcDbDictionary
280
     1
281
     1
  3
ACAD_XREC_ROUNDTRIP
360
449
  0
DICTIONARY
  5
446
330
44
100
AcDbDictionary
280
     1
281
     1
  3
ACAD_XREC_ROUNDTRIP
360
447
  0
DICTIONARY
  5
44A
330
46
100
AcDbDictionary
280
     1
281
     1
  3
ACAD_XREC_ROUNDTRIP
360
44B
  0
DICTIONARY
  5
44D
330
6C
100
AcDbDictionary
280
     1
281
     1
  3
ACAD_XREC_ROUNDTRIP
360
44E
  0
DICTIONARY
  5
41E
330
2F
100
AcDbDictionary
280
     1
281
     1
  3
ACAD_XREC_ROUNDTRIP
360
41F
  0
DICTIONARY
  5
424
330
32
100
AcDbDictionary
280
     1
281
     1
  3
ACAD_XREC_ROUNDTRIP
360
425
  0
DICTIONARY
  5
42C
330
36
100
AcDbDictionary
280
     1
281
     1
  3
ACAD_XREC_ROUNDTRIP
360
42D
  0
DICTIONARY
  5
434
330
3A
100
AcDbDictionary
280
     1
281
     1
  3
ACAD_XREC_ROUNDTRIP
360
435
  0
DICTIONARY
  5
428
330
34
100
AcDbDictionary
280
     1
281
     1
  3
ACAD_XREC_ROUNDTRIP
360
429
  0
DICTIONARY
  5
42A
330
35
100
AcDbDictionary
280
     1
281
     1
  3
ACAD_XREC_ROUNDTRIP
360
42B
  0
DICTIONARY
  5
43A
330
3D
100
AcDbDictionary
280
     1
281
     1
  3
ACAD_XREC_ROUNDTRIP
360
43B
  0
DICTIONARY
  5
432
330
39
100
AcDbDictionary
280
     1
281
     1
  3
ACAD_XREC_ROUNDTRIP
360
433
  0
DICTIONARY
  5
416
330
2B
100
AcDbDictionary
280
     1
281
     1
  3
ACAD_XREC_ROUNDTRIP
360
417
  0
DICTIONARY
  5
418
330
2C
100
AcDbDictionary
280
     1
281
     1
  3
ACAD_XREC_ROUNDTRIP
360
419
  0
DICTIONARY
  5
41A
330
2D
100
AcDbDictionary
280
     1
281
     1
  3
ACAD_XREC_ROUNDTRIP
360
41B
  0
DICTIONARY
  5
41C
330
2E
100
AcDbDictionary
280
     1
281
     1
  3
ACAD_XREC_ROUNDTRIP
360
41D
  0
DICTIONARY
  5
422
330
31
100
AcDbDictionary
280
     1
281
     1
  3
ACAD_XREC_ROUNDTRIP
360
423
  0
DICTIONARY
  5
436
330
3B
100
AcDbDictionary
280
     1
281
     1
  3
ACAD_XREC_ROUNDTRIP
360
437
  0
DICTIONARY
  5
430
330
38
100
AcDbDictionary
280
     1
281
     1
  3
ACAD_XREC_ROUNDTRIP
360
431
  0
DICTIONARY
  5
438
330
3C
100
AcDbDictionary
280
     1
281
     1
  3
ACAD_XREC_ROUNDTRIP
360
439
  0
DICTIONARY
  5
426
330
33
100
AcDbDictionary
280
     1
281
     1
  3
ACAD_XREC_ROUNDTRIP
360
427
  0
DICTIONARY
  5
444
330
42
100
AcDbDictionary
280
     1
281
     1
  3
ACAD_XREC_ROUNDTRIP
360
445
  0
DICTIONARY
  5
442
330
41
100
AcDbDictionary
280
     1
281
     1
  3
ACAD_XREC_ROUNDTRIP
360
443
  0
DICTIONARY
  5
43C
330
3E
100
AcDbDictionary
280
     1
281
     1
  3
ACAD_XREC_ROUNDTRIP
360
43D
  0
DICTIONARY
  5
43E
330
3F
100
AcDbDictionary
280
     1
281
     1
  3
ACAD_XREC_ROUNDTRIP
360
43F
  0
DICTIONARY
  5
42E
330
37
100
AcDbDictionary
280
     1
281
     1
  3
ACAD_XREC_ROUNDTRIP
360
42F
  0
DICTIONARY
  5
420
330
30
100
AcDbDictionary
280
     1
281
     1
  3
ACAD_XREC_ROUNDTRIP
360
421
  0
DICTIONARY
  5
440
330
40
100
AcDbDictionary
280
     1
281
     1
  3
ACAD_XREC_ROUNDTRIP
360
441
  0
XRECORD
  5
449
102
{ACAD_REACTORS
330
448
102
}
330
448
100
AcDbXrecord
280
     1
102
MATERIAL
148
0.0
149
0.0
149
0.0
 93
        0
 94
      127
282
     0
 72
     1
 77
     1
171
     1
175
     1
179
     1
273
     0
  0
XRECORD
  5
447
102
{ACAD_REACTORS
330
446
102
}
330
446
100
AcDbXrecord
280
     1
102
MATERIAL
148
0.0
149
0.0
149
0.0
 93
        0
 94
      127
282
     0
 72
     1
 77
     1
171
     1
175
     1
179
     1
273
     0
  0
XRECORD
  5
44B
102
{ACAD_REACTORS
330
44A
102
}
330
44A
100
AcDbXrecord
280
     1
102
MATERIAL
148
0.0
149
0.0
149
0.0
 93
        0
 94
      127
282
     0
 72
     1
 77
     1
171
     1
175
     1
179
     1
273
     0
  0
XRECORD
  5
44E
102
{ACAD_REACTORS
330
44D
102
}
330
44D
100
AcDbXrecord
280
     1
102
ACAD_ROUNDTRIP_2010_MLEADER_STYLE
  0
XRECORD
  5
41F
102
{ACAD_REACTORS
330
41E
102
}
330
41E
100
AcDbXrecord
280
     1
102
RTVSPropertyOp0
 70
     1
102
RTVSPropertyOp1
 70
     1
102
RTVSPropertyOp2
 70
     1
102
RTVSPropertyOp3
 70
     1
102
RTVSPropertyOp4
 70
     1
102
RTVSPropertyOp5
 70
     1
102
RTVSPropertyOp6
 70
     1
102
RTVSPropertyOp7
 70
     1
102
RTVSPropertyOp8
 70
     1
102
RTVSPropertyOp9
 70
     1
102
RTVSPropertyOp10
 70
     1
102
RTVSPropertyOp11
 70
     1
102
RTVSPropertyOp12
 70
     1
102
RTVSPropertyOp13
 70
     1
102
RTVSPropertyOp14
 70
     1
102
RTVSPropertyOp15
 70
     1
102
RTVSPropertyOp16
 70
     1
102
RTVSPropertyOp17
 70
     1
102
RTVSPropertyOp18
 70
     1
102
RTVSPropertyOp19
 70
     1
102
RTVSPropertyOp20
 70
     1
102
RTVSPropertyOp21
 70
     1
102
RTVSPropertyOp22
 70
     1
102
RTVSPropertyOp23
 70
     1
102
RTVSPropertyOp24
 70
     1
102
RTVSPropertyOp25
 70
     1
102
RTVSPropertyOp26
 70
     1
102
RTVSPropertyOp27
 70
     1
102
RTVSPropertyOp28
 70
     1
102
RTVSPropertyOp29
 70
     1
102
RTVSPropertyOp30
 70
     1
102
RTVSPropertyOp31
 70
     1
102
RTVSPropertyOp32
 70
     1
102
RTVSPropertyOp33
 70
     1
102
RTVSPropertyOp34
 70
     1
102
RTVSPropertyOp35
 70
     1
102
RTVSPropertyOp36
 70
     1
102
RTVSPropertyOp37
 70
     1
102
RTVSPropertyOp38
 70
     1
102
RTVSPropertyOp39
 70
     1
102
RTVSPropertyOp40
 70
     1
102
RTVSPropertyOp41
 70
     1
102
RTVSPropertyOp42
 70
     1
102
RTVSPropertyOp43
 70
     1
102
RTVSPropertyOp44
 70
     1
102
RTVSPropertyOp45
 70
     1
102
RTVSPropertyOp46
 70
     1
102
RTVSPropertyOp47
 70
     1
102
RTVSPropertyOp48
 70
     1
102
RTVSPropertyOp49
 70
     1
102
RTVSPropertyOp50
 70
     1
102
RTVSPropertyOp51
 70
     0
102
RTVSPropertyOp52
 70
     0
102
RTVSPropertyOp53
 70
     1
102
RTVSPropertyOp54
 70
     1
102
RTVSPropertyOp55
 70
     1
102
RTVSPropertyOp56
 70
     1
102
RTVSPropertyOp57
 70
     1
102
RTVSPost2010Prop28
280
     1
102
RTVSPost2010PropOp28
 70
     1
102
RTVSPost2010Prop29
280
     1
102
RTVSPost2010PropOp29
 70
     1
102
RTVSPost2010Prop30
280
     0
102
RTVSPost2010PropOp30
 70
     1
102
RTVSPost2010Prop31
280
     0
102
RTVSPost2010PropOp31
 70
     1
102
RTVSPost2010Prop32
280
     0
102
RTVSPost2010PropOp32
 70
     1
102
RTVSPost2010Prop33
280
     0
102
RTVSPost2010PropOp33
 70
     1
102
RTVSPost2010Prop34
280
     0
102
RTVSPost2010PropOp34
 70
     1
102
RTVSPost2010Prop35
280
     0
102
RTVSPost2010PropOp35
 70
     1
102
RTVSPost2010Prop36
280
     0
102
RTVSPost2010PropOp36
 70
     1
102
RTVSPost2010Prop37
 90
       50
102
RTVSPost2010PropOp37
 70
     1
102
RTVSPost2010Prop38
140
0.0
102
RTVSPost2010PropOp38
 70
     1
102
RTVSPost2010Prop39
140
1.0
102
RTVSPost2010PropOp39
 70
     1
102
RTVSPost2010Prop40
 90
        0
102
RTVSPost2010PropOp40
 70
     1
102
RTVSPost2010Prop41ColorIndex
 90
       18
102
RTVSPost2010Prop41ColorRGB
 90
        0
102
RTVSPost2010PropOp41
 70
     1
102
RTVSPost2010Prop42
 90
       50
102
RTVSPost2010PropOp42
 70
     1
102
RTVSPost2010Prop43
 90
        3
102
RTVSPost2010PropOp43
 70
     1
102
RTVSPost2010Prop44ColorIndex
 90
        5
102
RTVSPost2010Prop44ColorRGB
 90
      255
102
RTVSPost2010PropOp44
 70
     1
102
RTVSPost2010Prop45
280
     0
102
RTVSPost2010PropOp45
 70
     1
102
RTVSPost2010Prop46
 90
       50
102
RTVSPost2010PropOp46
 70
     1
102
RTVSPost2010Prop47
 90
       50
102
RTVSPost2010PropOp47
 70
     1
102
RTVSPost2010Prop48
 90
       50
102
RTVSPost2010PropOp48
 70
     1
102
RTVSPost2010Prop49
280
     0
102
RTVSPost2010PropOp49
 70
     1
102
RTVSPost2010Prop50
 90
       50
102
RTVSPost2010PropOp50
 70
     1
102
RTVSPost2010Prop51ColorIndex
 90
      256
102
RTVSPost2010Prop51ColorRGB
 90
-16777216
102
RTVSPost2010PropOp51
 70
     0
102
RTVSPost2010Prop52
140
1.0
102
RTVSPost2010PropOp52
 70
     0
102
RTVSPost2010Prop53
 90
        2
102
RTVSPost2010PropOp53
 70
     1
102
RTVSPost2010Prop54
  1
strokes_ogs.tif
102
RTVSPost2010PropOp54
 70
     1
102
RTVSPost2010Prop55
280
     0
102
RTVSPost2010PropOp55
 70
     1
102
RTVSPost2010Prop56
140
1.0
102
RTVSPost2010PropOp56
 70
     1
102
RTVSPost2010Prop57
140
1.0
102
RTVSPost2010PropOp57
 70
     1
  0
XRECORD
  5
425
102
{ACAD_REACTORS
330
424
102
}
330
424
100
AcDbXrecord
280
     1
102
RTVSPropertyOp0
 70
     1
102
RTVSPropertyOp1
 70
     1
102
RTVSPropertyOp2
 70
     1
102
RTVSPropertyOp3
 70
     1
102
RTVSPropertyOp4
 70
     1
102
RTVSPropertyOp5
 70
     1
102
RTVSPropertyOp6
 70
     1
102
RTVSPropertyOp7
 70
     1
102
RTVSPropertyOp8
 70
     1
102
RTVSPropertyOp9
 70
     1
102
RTVSPropertyOp10
 70
     1
102
RTVSPropertyOp11
 70
     1
102
RTVSPropertyOp12
 70
     1
102
RTVSPropertyOp13
 70
     1
102
RTVSPropertyOp14
 70
     1
102
RTVSPropertyOp15
 70
     1
102
RTVSPropertyOp16
 70
     1
102
RTVSPropertyOp17
 70
     1
102
RTVSPropertyOp18
 70
     1
102
RTVSPropertyOp19
 70
     1
102
RTVSPropertyOp20
 70
     1
102
RTVSPropertyOp21
 70
     1
102
RTVSPropertyOp22
 70
     1
102
RTVSPropertyOp23
 70
     1
102
RTVSPropertyOp24
 70
     1
102
RTVSPropertyOp25
 70
     1
102
RTVSPropertyOp26
 70
     1
102
RTVSPropertyOp27
 70
     1
102
RTVSPropertyOp28
 70
     1
102
RTVSPropertyOp29
 70
     1
102
RTVSPropertyOp30
 70
     1
102
RTVSPropertyOp31
 70
     1
102
RTVSPropertyOp32
 70
     1
102
RTVSPropertyOp33
 70
     1
102
RTVSPropertyOp34
 70
     1
102
RTVSPropertyOp35
 70
     1
102
RTVSPropertyOp36
 70
     1
102
RTVSPropertyOp37
 70
     1
102
RTVSPropertyOp38
 70
     1
102
RTVSPropertyOp39
 70
     1
102
RTVSPropertyOp40
 70
     1
102
RTVSPropertyOp41
 70
     1
102
RTVSPropertyOp42
 70
     1
102
RTVSPropertyOp43
 70
     1
102
RTVSPropertyOp44
 70
     1
102
RTVSPropertyOp45
 70
     1
102
RTVSPropertyOp46
 70
     1
102
RTVSPropertyOp47
 70
     1
102
RTVSPropertyOp48
 70
     1
102
RTVSPropertyOp49
 70
     1
102
RTVSPropertyOp50
 70
     1
102
RTVSPropertyOp51
 70
     0
102
RTVSPropertyOp52
 70
     0
102
RTVSPropertyOp53
 70
     1
102
RTVSPropertyOp54
 70
     1
102
RTVSPropertyOp55
 70
     1
102
RTVSPropertyOp56
 70
     1
102
RTVSPropertyOp57
 70
     1
102
RTVSPost2010Prop28
280
     0
102
RTVSPost2010PropOp28
 70
     1
102
RTVSPost2010Prop29
280
     1
102
RTVSPost2010PropOp29
 70
     1
102
RTVSPost2010Prop30
280
     1
102
RTVSPost2010PropOp30
 70
     1
102
RTVSPost2010Prop31
280
     0
102
RTVSPost2010PropOp31
 70
     1
102
RTVSPost2010Prop32
280
     0
102
RTVSPost2010PropOp32
 70
     1
102
RTVSPost2010Prop33
280
     0
102
RTVSPost2010PropOp33
 70
     1
102
RTVSPost2010Prop34
280
     0
102
RTVSPost2010PropOp34
 70
     1
102
RTVSPost2010Prop35
280
     0
102
RTVSPost2010PropOp35
 70
     1
102
RTVSPost2010Prop36
280
     0
102
RTVSPost2010PropOp36
 70
     1
102
RTVSPost2010Prop37
 90
       50
102
RTVSPost2010PropOp37
 70
     1
102
RTVSPost2010Prop38
140
0.0
102
RTVSPost2010PropOp38
 70
     1
102
RTVSPost2010Prop39
140
1.0
102
RTVSPost2010PropOp39
 70
     1
102
RTVSPost2010Prop40
 90
        0
102
RTVSPost2010PropOp40
 70
     1
102
RTVSPost2010Prop41ColorIndex
 90
       18
102
RTVSPost2010Prop41ColorRGB
 90
        0
102
RTVSPost2010PropOp41
 70
     1
102
RTVSPost2010Prop42
 90
       50
102
RTVSPost2010PropOp42
 70
     1
102
RTVSPost2010Prop43
 90
        3
102
RTVSPost2010PropOp43
 70
     1
102
RTVSPost2010Prop44ColorIndex
 90
        5
102
RTVSPost2010Prop44ColorRGB
 90
      255
102
RTVSPost2010PropOp44
 70
     1
102
RTVSPost2010Prop45
280
     0
102
RTVSPost2010PropOp45
 70
     1
102
RTVSPost2010Prop46
 90
       50
102
RTVSPost2010PropOp46
 70
     1
102
RTVSPost2010Prop47
 90
       50
102
RTVSPost2010PropOp47
 70
     1
102
RTVSPost2010Prop48
 90
       50
102
RTVSPost2010PropOp48
 70
     1
102
RTVSPost2010Prop49
280
     0
102
RTVSPost2010PropOp49
 70
     1
102
RTVSPost2010Prop50
 90
       50
102
RTVSPost2010PropOp50
 70
     1
102
RTVSPost2010Prop51ColorIndex
 90
      256
102
RTVSPost2010Prop51ColorRGB
 90
-16777216
102
RTVSPost2010PropOp51
 70
     0
102
RTVSPost2010Prop52
140
1.0
102
RTVSPost2010PropOp52
 70
     0
102
RTVSPost2010Prop53
 90
        2
102
RTVSPost2010PropOp53
 70
     1
102
RTVSPost2010Prop54
  1
strokes_ogs.tif
102
RTVSPost2010PropOp54
 70
     1
102
RTVSPost2010Prop55
280
     0
102
RTVSPost2010PropOp55
 70
     1
102
RTVSPost2010Prop56
140
1.0
102
RTVSPost2010PropOp56
 70
     1
102
RTVSPost2010Prop57
140
1.0
102
RTVSPost2010PropOp57
 70
     1
  0
XRECORD
  5
42D
102
{ACAD_REACTORS
330
42C
102
}
330
42C
100
AcDbXrecord
280
     1
102
RTVSPropertyOp0
 70
     1
102
RTVSPropertyOp1
 70
     1
102
RTVSPropertyOp2
 70
     1
102
RTVSPropertyOp3
 70
     1
102
RTVSPropertyOp4
 70
     1
102
RTVSPropertyOp5
 70
     1
102
RTVSPropertyOp6
 70
     1
102
RTVSPropertyOp7
 70
     1
102
RTVSPropertyOp8
 70
     1
102
RTVSPropertyOp9
 70
     1
102
RTVSPropertyOp10
 70
     1
102
RTVSPropertyOp11
 70
     1
102
RTVSPropertyOp12
 70
     1
102
RTVSPropertyOp13
 70
     1
102
RTVSPropertyOp14
 70
     1
102
RTVSPropertyOp15
 70
     1
102
RTVSPropertyOp16
 70
     1
102
RTVSPropertyOp17
 70
     1
102
RTVSPropertyOp18
 70
     1
102
RTVSPropertyOp19
 70
     1
102
RTVSPropertyOp20
 70
     1
102
RTVSPropertyOp21
 70
     1
102
RTVSPropertyOp22
 70
     1
102
RTVSPropertyOp23
 70
     1
102
RTVSPropertyOp24
 70
     1
102
RTVSPropertyOp25
 70
     1
102
RTVSPropertyOp26
 70
     1
102
RTVSPropertyOp27
 70
     1
102
RTVSPropertyOp28
 70
     1
102
RTVSPropertyOp29
 70
     1
102
RTVSPropertyOp30
 70
     1
102
RTVSPropertyOp31
 70
     1
102
RTVSPropertyOp32
 70
     1
102
RTVSPropertyOp33
 70
     1
102
RTVSPropertyOp34
 70
     1
102
RTVSPropertyOp35
 70
     1
102
RTVSPropertyOp36
 70
     1
102
RTVSPropertyOp37
 70
     1
102
RTVSPropertyOp38
 70
     1
102
RTVSPropertyOp39
 70
     1
102
RTVSPropertyOp40
 70
     1
102
RTVSPropertyOp41
 70
     1
102
RTVSPropertyOp42
 70
     1
102
RTVSPropertyOp43
 70
     1
102
RTVSPropertyOp44
 70
     1
102
RTVSPropertyOp45
 70
     1
102
RTVSPropertyOp46
 70
     1
102
RTVSPropertyOp47
 70
     1
102
RTVSPropertyOp48
 70
     1
102
RTVSPropertyOp49
 70
     1
102
RTVSPropertyOp50
 70
     1
102
RTVSPropertyOp51
 70
     0
102
RTVSPropertyOp52
 70
     0
102
RTVSPropertyOp53
 70
     1
102
RTVSPropertyOp54
 70
     1
102
RTVSPropertyOp55
 70
     1
102
RTVSPropertyOp56
 70
     1
102
RTVSPropertyOp57
 70
     1
102
RTVSPost2010Prop28
280
     0
102
RTVSPost2010PropOp28
 70
     1
102
RTVSPost2010Prop29
280
     1
102
RTVSPost2010PropOp29
 70
     1
102
RTVSPost2010Prop30
280
     1
102
RTVSPost2010PropOp30
 70
     1
102
RTVSPost2010Prop31
280
     0
102
RTVSPost2010PropOp31
 70
     1
102
RTVSPost2010Prop32
280
     0
102
RTVSPost2010PropOp32
 70
     1
102
RTVSPost2010Prop33
280
     0
102
RTVSPost2010PropOp33
 70
     1
102
RTVSPost2010Prop34
280
     0
102
RTVSPost2010PropOp34
 70
     1
102
RTVSPost2010Prop35
280
     0
102
RTVSPost2010PropOp35
 70
     1
102
RTVSPost2010Prop36
280
     0
102
RTVSPost2010PropOp36
 70
     1
102
RTVSPost2010Prop37
 90
       50
102
RTVSPost2010PropOp37
 70
     1
102
RTVSPost2010Prop38
140
0.0
102
RTVSPost2010PropOp38
 70
     1
102
RTVSPost2010Prop39
140
1.0
102
RTVSPost2010PropOp39
 70
     1
102
RTVSPost2010Prop40
 90
        0
102
RTVSPost2010PropOp40
 70
     1
102
RTVSPost2010Prop41ColorIndex
 90
       18
102
RTVSPost2010Prop41ColorRGB
 90
        0
102
RTVSPost2010PropOp41
 70
     1
102
RTVSPost2010Prop42
 90
       50
102
RTVSPost2010PropOp42
 70
     1
102
RTVSPost2010Prop43
 90
        3
102
RTVSPost2010PropOp43
 70
     1
102
RTVSPost2010Prop44ColorIndex
 90
        5
102
RTVSPost2010Prop44ColorRGB
 90
      255
102
RTVSPost2010PropOp44
 70
     1
102
RTVSPost2010Prop45
280
     0
102
RTVSPost2010PropOp45
 70
     1
102
RTVSPost2010Prop46
 90
       50
102
RTVSPost2010PropOp46
 70
     1
102
RTVSPost2010Prop47
 90
       50
102
RTVSPost2010PropOp47
 70
     1
102
RTVSPost2010Prop48
 90
       50
102
RTVSPost2010PropOp48
 70
     1
102
RTVSPost2010Prop49
280
     0
102
RTVSPost2010PropOp49
 70
     1
102
RTVSPost2010Prop50
 90
       50
102
RTVSPost2010PropOp50
 70
     1
102
RTVSPost2010Prop51ColorIndex
 90
      256
102
RTVSPost2010Prop51ColorRGB
 90
-16777216
102
RTVSPost2010PropOp51
 70
     0
102
RTVSPost2010Prop52
140
1.0
102
RTVSPost2010PropOp52
 70
     0
102
RTVSPost2010Prop53
 90
        2
102
RTVSPost2010PropOp53
 70
     1
102
RTVSPost2010Prop54
  1
strokes_ogs.tif
102
RTVSPost2010PropOp54
 70
     1
102
RTVSPost2010Prop55
280
     0
102
RTVSPost2010PropOp55
 70
     1
102
RTVSPost2010Prop56
140
1.0
102
RTVSPost2010PropOp56
 70
     1
102
RTVSPost2010Prop57
140
1.0
102
RTVSPost2010PropOp57
 70
     1
  0
XRECORD
  5
435
102
{ACAD_REACTORS
330
434
102
}
330
434
100
AcDbXrecord
280
     1
102
RTVSPropertyOp0
 70
     1
102
RTVSPropertyOp1
 70
     1
102
RTVSPropertyOp2
 70
     1
102
RTVSPropertyOp3
 70
     1
102
RTVSPropertyOp4
 70
     1
102
RTVSPropertyOp5
 70
     1
102
RTVSPropertyOp6
 70
     1
102
RTVSPropertyOp7
 70
     1
102
RTVSPropertyOp8
 70
     1
102
RTVSPropertyOp9
 70
     1
102
RTVSPropertyOp10
 70
     1
102
RTVSPropertyOp11
 70
     1
102
RTVSPropertyOp12
 70
     1
102
RTVSPropertyOp13
 70
     1
102
RTVSPropertyOp14
 70
     1
102
RTVSPropertyOp15
 70
     1
102
RTVSPropertyOp16
 70
     1
102
RTVSPropertyOp17
 70
     1
102
RTVSPropertyOp18
 70
     1
102
RTVSPropertyOp19
 70
     1
102
RTVSPropertyOp20
 70
     1
102
RTVSPropertyOp21
 70
     1
102
RTVSPropertyOp22
 70
     1
102
RTVSPropertyOp23
 70
     1
102
RTVSPropertyOp24
 70
     1
102
RTVSPropertyOp25
 70
     1
102
RTVSPropertyOp26
 70
     1
102
RTVSPropertyOp27
 70
     1
102
RTVSPropertyOp28
 70
     1
102
RTVSPropertyOp29
 70
     1
102
RTVSPropertyOp30
 70
     1
102
RTVSPropertyOp31
 70
     1
102
RTVSPropertyOp32
 70
     1
102
RTVSPropertyOp33
 70
     1
102
RTVSPropertyOp34
 70
     1
102
RTVSPropertyOp35
 70
     1
102
RTVSPropertyOp36
 70
     1
102
RTVSPropertyOp37
 70
     1
102
RTVSPropertyOp38
 70
     1
102
RTVSPropertyOp39
 70
     1
102
RTVSPropertyOp40
 70
     1
102
RTVSPropertyOp41
 70
     1
102
RTVSPropertyOp42
 70
     1
102
RTVSPropertyOp43
 70
     1
102
RTVSPropertyOp44
 70
     1
102
RTVSPropertyOp45
 70
     1
102
RTVSPropertyOp46
 70
     1
102
RTVSPropertyOp47
 70
     1
102
RTVSPropertyOp48
 70
     1
102
RTVSPropertyOp49
 70
     1
102
RTVSPropertyOp50
 70
     1
102
RTVSPropertyOp51
 70
     0
102
RTVSPropertyOp52
 70
     0
102
RTVSPropertyOp53
 70
     1
102
RTVSPropertyOp54
 70
     1
102
RTVSPropertyOp55
 70
     1
102
RTVSPropertyOp56
 70
     1
102
RTVSPropertyOp57
 70
     1
102
RTVSPost2010Prop28
280
     0
102
RTVSPost2010PropOp28
 70
     1
102
RTVSPost2010Prop29
280
     1
102
RTVSPost2010PropOp29
 70
     1
102
RTVSPost2010Prop30
280
     1
102
RTVSPost2010PropOp30
 70
     1
102
RTVSPost2010Prop31
280
     0
102
RTVSPost2010PropOp31
 70
     1
102
RTVSPost2010Prop32
280
     0
102
RTVSPost2010PropOp32
 70
     1
102
RTVSPost2010Prop33
280
     0
102
RTVSPost2010PropOp33
 70
     1
102
RTVSPost2010Prop34
280
     0
102
RTVSPost2010PropOp34
 70
     1
102
RTVSPost2010Prop35
280
     0
102
RTVSPost2010PropOp35
 70
     1
102
RTVSPost2010Prop36
280
     0
102
RTVSPost2010PropOp36
 70
     1
102
RTVSPost2010Prop37
 90
       50
102
RTVSPost2010PropOp37
 70
     1
102
RTVSPost2010Prop38
140
0.0
102
RTVSPost2010PropOp38
 70
     1
102
RTVSPost2010Prop39
140
1.0
102
RTVSPost2010PropOp39
 70
     1
102
RTVSPost2010Prop40
 90
        0
102
RTVSPost2010PropOp40
 70
     1
102
RTVSPost2010Prop41ColorIndex
 90
       18
102
RTVSPost2010Prop41ColorRGB
 90
        0
102
RTVSPost2010PropOp41
 70
     1
102
RTVSPost2010Prop42
 90
       50
102
RTVSPost2010PropOp42
 70
     1
102
RTVSPost2010Prop43
 90
        3
102
RTVSPost2010PropOp43
 70
     1
102
RTVSPost2010Prop44ColorIndex
 90
        5
102
RTVSPost2010Prop44ColorRGB
 90
      255
102
RTVSPost2010PropOp44
 70
     1
102
RTVSPost2010Prop45
280
     0
102
RTVSPost2010PropOp45
 70
     1
102
RTVSPost2010Prop46
 90
       50
102
RTVSPost2010PropOp46
 70
     1
102
RTVSPost2010Prop47
 90
       50
102
RTVSPost2010PropOp47
 70
     1
102
RTVSPost2010Prop48
 90
       50
102
RTVSPost2010PropOp48
 70
     1
102
RTVSPost2010Prop49
280
     0
102
RTVSPost2010PropOp49
 70
     1
102
RTVSPost2010Prop50
 90
       50
102
RTVSPost2010PropOp50
 70
     1
102
RTVSPost2010Prop51ColorIndex
 90
      256
102
RTVSPost2010Prop51ColorRGB
 90
-16777216
102
RTVSPost2010PropOp51
 70
     0
102
RTVSPost2010Prop52
140
1.0
102
RTVSPost2010PropOp52
 70
     0
102
RTVSPost2010Prop53
 90
        2
102
RTVSPost2010PropOp53
 70
     1
102
RTVSPost2010Prop54
  1
strokes_ogs.tif
102
RTVSPost2010PropOp54
 70
     1
102
RTVSPost2010Prop55
280
     0
102
RTVSPost2010PropOp55
 70
     1
102
RTVSPost2010Prop56
140
1.0
102
RTVSPost2010PropOp56
 70
     1
102
RTVSPost2010Prop57
140
1.0
102
RTVSPost2010PropOp57
 70
     1
  0
XRECORD
  5
429
102
{ACAD_REACTORS
330
428
102
}
330
428
100
AcDbXrecord
280
     1
102
RTVSPropertyOp0
 70
     1
102
RTVSPropertyOp1
 70
     1
102
RTVSPropertyOp2
 70
     1
102
RTVSPropertyOp3
 70
     1
102
RTVSPropertyOp4
 70
     1
102
RTVSPropertyOp5
 70
     1
102
RTVSPropertyOp6
 70
     1
102
RTVSPropertyOp7
 70
     1
102
RTVSPropertyOp8
 70
     1
102
RTVSPropertyOp9
 70
     1
102
RTVSPropertyOp10
 70
     1
102
RTVSPropertyOp11
 70
     1
102
RTVSPropertyOp12
 70
     1
102
RTVSPropertyOp13
 70
     1
102
RTVSPropertyOp14
 70
     1
102
RTVSPropertyOp15
 70
     1
102
RTVSPropertyOp16
 70
     1
102
RTVSPropertyOp17
 70
     1
102
RTVSPropertyOp18
 70
     1
102
RTVSPropertyOp19
 70
     1
102
RTVSPropertyOp20
 70
     1
102
RTVSPropertyOp21
 70
     1
102
RTVSPropertyOp22
 70
     1
102
RTVSPropertyOp23
 70
     1
102
RTVSPropertyOp24
 70
     1
102
RTVSPropertyOp25
 70
     1
102
RTVSPropertyOp26
 70
     1
102
RTVSPropertyOp27
 70
     1
102
RTVSPropertyOp28
 70
     1
102
RTVSPropertyOp29
 70
     1
102
RTVSPropertyOp30
 70
     1
102
RTVSPropertyOp31
 70
     1
102
RTVSPropertyOp32
 70
     1
102
RTVSPropertyOp33
 70
     1
102
RTVSPropertyOp34
 70
     1
102
RTVSPropertyOp35
 70
     1
102
RTVSPropertyOp36
 70
     1
102
RTVSPropertyOp37
 70
     1
102
RTVSPropertyOp38
 70
     1
102
RTVSPropertyOp39
 70
     1
102
RTVSPropertyOp40
 70
     1
102
RTVSPropertyOp41
 70
     1
102
RTVSPropertyOp42
 70
     1
102
RTVSPropertyOp43
 70
     1
102
RTVSPropertyOp44
 70
     1
102
RTVSPropertyOp45
 70
     1
102
RTVSPropertyOp46
 70
     1
102
RTVSPropertyOp47
 70
     1
102
RTVSPropertyOp48
 70
     1
102
RTVSPropertyOp49
 70
     1
102
RTVSPropertyOp50
 70
     1
102
RTVSPropertyOp51
 70
     0
102
RTVSPropertyOp52
 70
     0
102
RTVSPropertyOp53
 70
     1
102
RTVSPropertyOp54
 70
     1
102
RTVSPropertyOp55
 70
     1
102
RTVSPropertyOp56
 70
     1
102
RTVSPropertyOp57
 70
     1
102
RTVSPost2010Prop28
280
     0
102
RTVSPost2010PropOp28
 70
     1
102
RTVSPost2010Prop29
280
     1
102
RTVSPost2010PropOp29
 70
     1
102
RTVSPost2010Prop30
280
     1
102
RTVSPost2010PropOp30
 70
     1
102
RTVSPost2010Prop31
280
     0
102
RTVSPost2010PropOp31
 70
     1
102
RTVSPost2010Prop32
280
     0
102
RTVSPost2010PropOp32
 70
     1
102
RTVSPost2010Prop33
280
     0
102
RTVSPost2010PropOp33
 70
     1
102
RTVSPost2010Prop34
280
     0
102
RTVSPost2010PropOp34
 70
     1
102
RTVSPost2010Prop35
280
     0
102
RTVSPost2010PropOp35
 70
     1
102
RTVSPost2010Prop36
280
     0
102
RTVSPost2010PropOp36
 70
     1
102
RTVSPost2010Prop37
 90
       50
102
RTVSPost2010PropOp37
 70
     1
102
RTVSPost2010Prop38
140
0.0
102
RTVSPost2010PropOp38
 70
     1
102
RTVSPost2010Prop39
140
1.0
102
RTVSPost2010PropOp39
 70
     1
102
RTVSPost2010Prop40
 90
        0
102
RTVSPost2010PropOp40
 70
     1
102
RTVSPost2010Prop41ColorIndex
 90
       18
102
RTVSPost2010Prop41ColorRGB
 90
        0
102
RTVSPost2010PropOp41
 70
     1
102
RTVSPost2010Prop42
 90
       50
102
RTVSPost2010PropOp42
 70
     1
102
RTVSPost2010Prop43
 90
        3
102
RTVSPost2010PropOp43
 70
     1
102
RTVSPost2010Prop44ColorIndex
 90
        5
102
RTVSPost2010Prop44ColorRGB
 90
      255
102
RTVSPost2010PropOp44
 70
     1
102
RTVSPost2010Prop45
280
     0
102
RTVSPost2010PropOp45
 70
     1
102
RTVSPost2010Prop46
 90
       50
102
RTVSPost2010PropOp46
 70
     1
102
RTVSPost2010Prop47
 90
       50
102
RTVSPost2010PropOp47
 70
     1
102
RTVSPost2010Prop48
 90
       50
102
RTVSPost2010PropOp48
 70
     1
102
RTVSPost2010Prop49
280
     0
102
RTVSPost2010PropOp49
 70
     1
102
RTVSPost2010Prop50
 90
       50
102
RTVSPost2010PropOp50
 70
     1
102
RTVSPost2010Prop51ColorIndex
 90
      256
102
RTVSPost2010Prop51ColorRGB
 90
-16777216
102
RTVSPost2010PropOp51
 70
     0
102
RTVSPost2010Prop52
140
1.0
102
RTVSPost2010PropOp52
 70
     0
102
RTVSPost2010Prop53
 90
        2
102
RTVSPost2010PropOp53
 70
     1
102
RTVSPost2010Prop54
  1
strokes_ogs.tif
102
RTVSPost2010PropOp54
 70
     1
102
RTVSPost2010Prop55
280
     0
102
RTVSPost2010PropOp55
 70
     1
102
RTVSPost2010Prop56
140
1.0
102
RTVSPost2010PropOp56
 70
     1
102
RTVSPost2010Prop57
140
1.0
102
RTVSPost2010PropOp57
 70
     1
  0
XRECORD
  5
42B
102
{ACAD_REACTORS
330
42A
102
}
330
42A
100
AcDbXrecord
280
     1
102
RTVSPropertyOp0
 70
     1
102
RTVSPropertyOp1
 70
     1
102
RTVSPropertyOp2
 70
     1
102
RTVSPropertyOp3
 70
     1
102
RTVSPropertyOp4
 70
     1
102
RTVSPropertyOp5
 70
     1
102
RTVSPropertyOp6
 70
     1
102
RTVSPropertyOp7
 70
     1
102
RTVSPropertyOp8
 70
     1
102
RTVSPropertyOp9
 70
     1
102
RTVSPropertyOp10
 70
     1
102
RTVSPropertyOp11
 70
     1
102
RTVSPropertyOp12
 70
     1
102
RTVSPropertyOp13
 70
     1
102
RTVSPropertyOp14
 70
     1
102
RTVSPropertyOp15
 70
     1
102
RTVSPropertyOp16
 70
     1
102
RTVSPropertyOp17
 70
     1
102
RTVSPropertyOp18
 70
     1
102
RTVSPropertyOp19
 70
     1
102
RTVSPropertyOp20
 70
     1
102
RTVSPropertyOp21
 70
     1
102
RTVSPropertyOp22
 70
     1
102
RTVSPropertyOp23
 70
     1
102
RTVSPropertyOp24
 70
     1
102
RTVSPropertyOp25
 70
     1
102
RTVSPropertyOp26
 70
     1
102
RTVSPropertyOp27
 70
     1
102
RTVSPropertyOp28
 70
     1
102
RTVSPropertyOp29
 70
     1
102
RTVSPropertyOp30
 70
     1
102
RTVSPropertyOp31
 70
     1
102
RTVSPropertyOp32
 70
     1
102
RTVSPropertyOp33
 70
     1
102
RTVSPropertyOp34
 70
     1
102
RTVSPropertyOp35
 70
     1
102
RTVSPropertyOp36
 70
     1
102
RTVSPropertyOp37
 70
     1
102
RTVSPropertyOp38
 70
     1
102
RTVSPropertyOp39
 70
     1
102
RTVSPropertyOp40
 70
     1
102
RTVSPropertyOp41
 70
     1
102
RTVSPropertyOp42
 70
     1
102
RTVSPropertyOp43
 70
     1
102
RTVSPropertyOp44
 70
     1
102
RTVSPropertyOp45
 70
     1
102
RTVSPropertyOp46
 70
     1
102
RTVSPropertyOp47
 70
     1
102
RTVSPropertyOp48
 70
     1
102
RTVSPropertyOp49
 70
     1
102
RTVSPropertyOp50
 70
     1
102
RTVSPropertyOp51
 70
     0
102
RTVSPropertyOp52
 70
     0
102
RTVSPropertyOp53
 70
     1
102
RTVSPropertyOp54
 70
     1
102
RTVSPropertyOp55
 70
     1
102
RTVSPropertyOp56
 70
     1
102
RTVSPropertyOp57
 70
     1
102
RTVSPost2010Prop28
280
     0
102
RTVSPost2010PropOp28
 70
     1
102
RTVSPost2010Prop29
280
     1
102
RTVSPost2010PropOp29
 70
     1
102
RTVSPost2010Prop30
280
     1
102
RTVSPost2010PropOp30
 70
     1
102
RTVSPost2010Prop31
280
     0
102
RTVSPost2010PropOp31
 70
     1
102
RTVSPost2010Prop32
280
     0
102
RTVSPost2010PropOp32
 70
     1
102
RTVSPost2010Prop33
280
     0
102
RTVSPost2010PropOp33
 70
     1
102
RTVSPost2010Prop34
280
     0
102
RTVSPost2010PropOp34
 70
     1
102
RTVSPost2010Prop35
280
     0
102
RTVSPost2010PropOp35
 70
     1
102
RTVSPost2010Prop36
280
     0
102
RTVSPost2010PropOp36
 70
     1
102
RTVSPost2010Prop37
 90
       50
102
RTVSPost2010PropOp37
 70
     1
102
RTVSPost2010Prop38
140
0.0
102
RTVSPost2010PropOp38
 70
     1
102
RTVSPost2010Prop39
140
1.0
102
RTVSPost2010PropOp39
 70
     1
102
RTVSPost2010Prop40
 90
        0
102
RTVSPost2010PropOp40
 70
     1
102
RTVSPost2010Prop41ColorIndex
 90
       18
102
RTVSPost2010Prop41ColorRGB
 90
        0
102
RTVSPost2010PropOp41
 70
     1
102
RTVSPost2010Prop42
 90
       50
102
RTVSPost2010PropOp42
 70
     1
102
RTVSPost2010Prop43
 90
        3
102
RTVSPost2010PropOp43
 70
     1
102
RTVSPost2010Prop44ColorIndex
 90
        5
102
RTVSPost2010Prop44ColorRGB
 90
      255
102
RTVSPost2010PropOp44
 70
     1
102
RTVSPost2010Prop45
280
     0
102
RTVSPost2010PropOp45
 70
     1
102
RTVSPost2010Prop46
 90
       50
102
RTVSPost2010PropOp46
 70
     1
102
RTVSPost2010Prop47
 90
       50
102
RTVSPost2010PropOp47
 70
     1
102
RTVSPost2010Prop48
 90
       50
102
RTVSPost2010PropOp48
 70
     1
102
RTVSPost2010Prop49
280
     0
102
RTVSPost2010PropOp49
 70
     1
102
RTVSPost2010Prop50
 90
       50
102
RTVSPost2010PropOp50
 70
     1
102
RTVSPost2010Prop51ColorIndex
 90
      256
102
RTVSPost2010Prop51ColorRGB
 90
-16777216
102
RTVSPost2010PropOp51
 70
     0
102
RTVSPost2010Prop52
140
1.0
102
RTVSPost2010PropOp52
 70
     0
102
RTVSPost2010Prop53
 90
        2
102
RTVSPost2010PropOp53
 70
     1
102
RTVSPost2010Prop54
  1
strokes_ogs.tif
102
RTVSPost2010PropOp54
 70
     1
102
RTVSPost2010Prop55
280
     0
102
RTVSPost2010PropOp55
 70
     1
102
RTVSPost2010Prop56
140
1.0
102
RTVSPost2010PropOp56
 70
     1
102
RTVSPost2010Prop57
140
1.0
102
RTVSPost2010PropOp57
 70
     1
  0
XRECORD
  5
43B
102
{ACAD_REACTORS
330
43A
102
}
330
43A
100
AcDbXrecord
280
     1
102
RTVSPropertyOp0
 70
     0
102
RTVSPropertyOp1
 70
     0
102
RTVSPropertyOp2
 70
     0
102
RTVSPropertyOp3
 70
     0
102
RTVSPropertyOp4
 70
     0
102
RTVSPropertyOp5
 70
     0
102
RTVSPropertyOp6
 70
     0
102
RTVSPropertyOp7
 70
     0
102
RTVSPropertyOp8
 70
     0
102
RTVSPropertyOp9
 70
     0
102
RTVSPropertyOp10
 70
     0
102
RTVSPropertyOp11
 70
     0
102
RTVSPropertyOp12
 70
     0
102
RTVSPropertyOp13
 70
     0
102
RTVSPropertyOp14
 70
     2
102
RTVSPropertyOp15
 70
     0
102
RTVSPropertyOp16
 70
     0
102
RTVSPropertyOp17
 70
     0
102
RTVSPropertyOp18
 70
     0
102
RTVSPropertyOp19
 70
     0
102
RTVSPropertyOp20
 70
     0
102
RTVSPropertyOp21
 70
     0
102
RTVSPropertyOp22
 70
     0
102
RTVSPropertyOp23
 70
     0
102
RTVSPropertyOp24
 70
     0
102
RTVSPropertyOp25
 70
     0
102
RTVSPropertyOp26
 70
     0
102
RTVSPropertyOp27
 70
     0
102
RTVSPropertyOp28
 70
     0
102
RTVSPropertyOp29
 70
     0
102
RTVSPropertyOp30
 70
     0
102
RTVSPropertyOp31
 70
     0
102
RTVSPropertyOp32
 70
     0
102
RTVSPropertyOp33
 70
     0
102
RTVSPropertyOp34
 70
     0
102
RTVSPropertyOp35
 70
     0
102
RTVSPropertyOp36
 70
     0
102
RTVSPropertyOp37
 70
     0
102
RTVSPropertyOp38
 70
     0
102
RTVSPropertyOp39
 70
     0
102
RTVSPropertyOp40
 70
     0
102
RTVSPropertyOp41
 70
     0
102
RTVSPropertyOp42
 70
     0
102
RTVSPropertyOp43
 70
     0
102
RTVSPropertyOp44
 70
     0
102
RTVSPropertyOp45
 70
     0
102
RTVSPropertyOp46
 70
     0
102
RTVSPropertyOp47
 70
     0
102
RTVSPropertyOp48
 70
     0
102
RTVSPropertyOp49
 70
     0
102
RTVSPropertyOp50
 70
     0
102
RTVSPropertyOp51
 70
     0
102
RTVSPropertyOp52
 70
     0
102
RTVSPropertyOp53
 70
     0
102
RTVSPropertyOp54
 70
     0
102
RTVSPropertyOp55
 70
     0
102
RTVSPropertyOp56
 70
     0
102
RTVSPropertyOp57
 70
     0
102
RTVSPost2010Prop28
280
     0
102
RTVSPost2010PropOp28
 70
     0
102
RTVSPost2010Prop29
280
     1
102
RTVSPost2010PropOp29
 70
     0
102
RTVSPost2010Prop30
280
     1
102
RTVSPost2010PropOp30
 70
     0
102
RTVSPost2010Prop31
280
     0
102
RTVSPost2010PropOp31
 70
     0
102
RTVSPost2010Prop32
280
     0
102
RTVSPost2010PropOp32
 70
     0
102
RTVSPost2010Prop33
280
     0
102
RTVSPost2010PropOp33
 70
     0
102
RTVSPost2010Prop34
280
     0
102
RTVSPost2010PropOp34
 70
     0
102
RTVSPost2010Prop35
280
     0
102
RTVSPost2010PropOp35
 70
     0
102
RTVSPost2010Prop36
280
     0
102
RTVSPost2010PropOp36
 70
     0
102
RTVSPost2010Prop37
 90
       50
102
RTVSPost2010PropOp37
 70
     0
102
RTVSPost2010Prop38
140
0.0
102
RTVSPost2010PropOp38
 70
     0
102
RTVSPost2010Prop39
140
1.0
102
RTVSPost2010PropOp39
 70
     0
102
RTVSPost2010Prop40
 90
        0
102
RTVSPost2010PropOp40
 70
     0
102
RTVSPost2010Prop41ColorIndex
 90
       18
102
RTVSPost2010Prop41ColorRGB
 90
        0
102
RTVSPost2010PropOp41
 70
     0
102
RTVSPost2010Prop42
 90
       50
102
RTVSPost2010PropOp42
 70
     0
102
RTVSPost2010Prop43
 90
        3
102
RTVSPost2010PropOp43
 70
     0
102
RTVSPost2010Prop44ColorIndex
 90
        5
102
RTVSPost2010Prop44ColorRGB
 90
      255
102
RTVSPost2010PropOp44
 70
     0
102
RTVSPost2010Prop45
280
     0
102
RTVSPost2010PropOp45
 70
     0
102
RTVSPost2010Prop46
 90
       50
102
RTVSPost2010PropOp46
 70
     0
102
RTVSPost2010Prop47
 90
       50
102
RTVSPost2010PropOp47
 70
     0
102
RTVSPost2010Prop48
 90
       50
102
RTVSPost2010PropOp48
 70
     0
102
RTVSPost2010Prop49
280
     0
102
RTVSPost2010PropOp49
 70
     0
102
RTVSPost2010Prop50
 90
       50
102
RTVSPost2010PropOp50
 70
     0
102
RTVSPost2010Prop51ColorIndex
 90
      256
102
RTVSPost2010Prop51ColorRGB
 90
-16777216
102
RTVSPost2010PropOp51
 70
     0
102
RTVSPost2010Prop52
140
1.0
102
RTVSPost2010PropOp52
 70
     0
102
RTVSPost2010Prop53
 90
        2
102
RTVSPost2010PropOp53
 70
     0
102
RTVSPost2010Prop54
  1
strokes_ogs.tif
102
RTVSPost2010PropOp54
 70
     0
102
RTVSPost2010Prop55
280
     0
102
RTVSPost2010PropOp55
 70
     0
102
RTVSPost2010Prop56
140
1.0
102
RTVSPost2010PropOp56
 70
     0
102
RTVSPost2010Prop57
140
1.0
102
RTVSPost2010PropOp57
 70
     0
  0
XRECORD
  5
433
102
{ACAD_REACTORS
330
432
102
}
330
432
100
AcDbXrecord
280
     1
102
RTVSPropertyOp0
 70
     1
102
RTVSPropertyOp1
 70
     1
102
RTVSPropertyOp2
 70
     1
102
RTVSPropertyOp3
 70
     1
102
RTVSPropertyOp4
 70
     1
102
RTVSPropertyOp5
 70
     1
102
RTVSPropertyOp6
 70
     1
102
RTVSPropertyOp7
 70
     1
102
RTVSPropertyOp8
 70
     1
102
RTVSPropertyOp9
 70
     1
102
RTVSPropertyOp10
 70
     1
102
RTVSPropertyOp11
 70
     1
102
RTVSPropertyOp12
 70
     1
102
RTVSPropertyOp13
 70
     1
102
RTVSPropertyOp14
 70
     1
102
RTVSPropertyOp15
 70
     1
102
RTVSPropertyOp16
 70
     1
102
RTVSPropertyOp17
 70
     1
102
RTVSPropertyOp18
 70
     1
102
RTVSPropertyOp19
 70
     1
102
RTVSPropertyOp20
 70
     1
102
RTVSPropertyOp21
 70
     1
102
RTVSPropertyOp22
 70
     1
102
RTVSPropertyOp23
 70
     1
102
RTVSPropertyOp24
 70
     1
102
RTVSPropertyOp25
 70
     1
102
RTVSPropertyOp26
 70
     1
102
RTVSPropertyOp27
 70
     1
102
RTVSPropertyOp28
 70
     1
102
RTVSPropertyOp29
 70
     1
102
RTVSPropertyOp30
 70
     1
102
RTVSPropertyOp31
 70
     1
102
RTVSPropertyOp32
 70
     1
102
RTVSPropertyOp33
 70
     1
102
RTVSPropertyOp34
 70
     1
102
RTVSPropertyOp35
 70
     1
102
RTVSPropertyOp36
 70
     1
102
RTVSPropertyOp37
 70
     1
102
RTVSPropertyOp38
 70
     1
102
RTVSPropertyOp39
 70
     1
102
RTVSPropertyOp40
 70
     1
102
RTVSPropertyOp41
 70
     1
102
RTVSPropertyOp42
 70
     1
102
RTVSPropertyOp43
 70
     1
102
RTVSPropertyOp44
 70
     1
102
RTVSPropertyOp45
 70
     1
102
RTVSPropertyOp46
 70
     1
102
RTVSPropertyOp47
 70
     1
102
RTVSPropertyOp48
 70
     1
102
RTVSPropertyOp49
 70
     1
102
RTVSPropertyOp50
 70
     1
102
RTVSPropertyOp51
 70
     0
102
RTVSPropertyOp52
 70
     0
102
RTVSPropertyOp53
 70
     1
102
RTVSPropertyOp54
 70
     1
102
RTVSPropertyOp55
 70
     1
102
RTVSPropertyOp56
 70
     1
102
RTVSPropertyOp57
 70
     1
102
RTVSPost2010Prop28
280
     0
102
RTVSPost2010PropOp28
 70
     1
102
RTVSPost2010Prop29
280
     1
102
RTVSPost2010PropOp29
 70
     1
102
RTVSPost2010Prop30
280
     1
102
RTVSPost2010PropOp30
 70
     1
102
RTVSPost2010Prop31
280
     0
102
RTVSPost2010PropOp31
 70
     1
102
RTVSPost2010Prop32
280
     0
102
RTVSPost2010PropOp32
 70
     1
102
RTVSPost2010Prop33
280
     0
102
RTVSPost2010PropOp33
 70
     1
102
RTVSPost2010Prop34
280
     0
102
RTVSPost2010PropOp34
 70
     1
102
RTVSPost2010Prop35
280
     0
102
RTVSPost2010PropOp35
 70
     1
102
RTVSPost2010Prop36
280
     0
102
RTVSPost2010PropOp36
 70
     1
102
RTVSPost2010Prop37
 90
       50
102
RTVSPost2010PropOp37
 70
     1
102
RTVSPost2010Prop38
140
0.0
102
RTVSPost2010PropOp38
 70
     1
102
RTVSPost2010Prop39
140
1.0
102
RTVSPost2010PropOp39
 70
     1
102
RTVSPost2010Prop40
 90
        0
102
RTVSPost2010PropOp40
 70
     1
102
RTVSPost2010Prop41ColorIndex
 90
       18
102
RTVSPost2010Prop41ColorRGB
 90
        0
102
RTVSPost2010PropOp41
 70
     1
102
RTVSPost2010Prop42
 90
       50
102
RTVSPost2010PropOp42
 70
     1
102
RTVSPost2010Prop43
 90
        3
102
RTVSPost2010PropOp43
 70
     1
102
RTVSPost2010Prop44ColorIndex
 90
        5
102
RTVSPost2010Prop44ColorRGB
 90
      255
102
RTVSPost2010PropOp44
 70
     1
102
RTVSPost2010Prop45
280
     0
102
RTVSPost2010PropOp45
 70
     1
102
RTVSPost2010Prop46
 90
       50
102
RTVSPost2010PropOp46
 70
     1
102
RTVSPost2010Prop47
 90
       50
102
RTVSPost2010PropOp47
 70
     1
102
RTVSPost2010Prop48
 90
       50
102
RTVSPost2010PropOp48
 70
     1
102
RTVSPost2010Prop49
280
     0
102
RTVSPost2010PropOp49
 70
     1
102
RTVSPost2010Prop50
 90
       50
102
RTVSPost2010PropOp50
 70
     1
102
RTVSPost2010Prop51ColorIndex
 90
      256
102
RTVSPost2010Prop51ColorRGB
 90
-16777216
102
RTVSPost2010PropOp51
 70
     0
102
RTVSPost2010Prop52
140
1.0
102
RTVSPost2010PropOp52
 70
     0
102
RTVSPost2010Prop53
 90
        2
102
RTVSPost2010PropOp53
 70
     1
102
RTVSPost2010Prop54
  1
strokes_ogs.tif
102
RTVSPost2010PropOp54
 70
     1
102
RTVSPost2010Prop55
280
     0
102
RTVSPost2010PropOp55
 70
     1
102
RTVSPost2010Prop56
140
1.0
102
RTVSPost2010PropOp56
 70
     1
102
RTVSPost2010Prop57
140
1.0
102
RTVSPost2010PropOp57
 70
     1
  0
XRECORD
  5
417
102
{ACAD_REACTORS
330
416
102
}
330
416
100
AcDbXrecord
280
     1
102
RTVSPropertyOp0
 70
     1
102
RTVSPropertyOp1
 70
     1
102
RTVSPropertyOp2
 70
     1
102
RTVSPropertyOp3
 70
     1
102
RTVSPropertyOp4
 70
     1
102
RTVSPropertyOp5
 70
     1
102
RTVSPropertyOp6
 70
     1
102
RTVSPropertyOp7
 70
     1
102
RTVSPropertyOp8
 70
     1
102
RTVSPropertyOp9
 70
     1
102
RTVSPropertyOp10
 70
     1
102
RTVSPropertyOp11
 70
     1
102
RTVSPropertyOp12
 70
     1
102
RTVSPropertyOp13
 70
     1
102
RTVSPropertyOp14
 70
     1
102
RTVSPropertyOp15
 70
     1
102
RTVSPropertyOp16
 70
     1
102
RTVSPropertyOp17
 70
     1
102
RTVSPropertyOp18
 70
     1
102
RTVSPropertyOp19
 70
     1
102
RTVSPropertyOp20
 70
     1
102
RTVSPropertyOp21
 70
     1
102
RTVSPropertyOp22
 70
     1
102
RTVSPropertyOp23
 70
     1
102
RTVSPropertyOp24
 70
     1
102
RTVSPropertyOp25
 70
     1
102
RTVSPropertyOp26
 70
     1
102
RTVSPropertyOp27
 70
     1
102
RTVSPropertyOp28
 70
     1
102
RTVSPropertyOp29
 70
     1
102
RTVSPropertyOp30
 70
     1
102
RTVSPropertyOp31
 70
     1
102
RTVSPropertyOp32
 70
     1
102
RTVSPropertyOp33
 70
     1
102
RTVSPropertyOp34
 70
     1
102
RTVSPropertyOp35
 70
     1
102
RTVSPropertyOp36
 70
     1
102
RTVSPropertyOp37
 70
     1
102
RTVSPropertyOp38
 70
     1
102
RTVSPropertyOp39
 70
     1
102
RTVSPropertyOp40
 70
     1
102
RTVSPropertyOp41
 70
     1
102
RTVSPropertyOp42
 70
     1
102
RTVSPropertyOp43
 70
     1
102
RTVSPropertyOp44
 70
     1
102
RTVSPropertyOp45
 70
     1
102
RTVSPropertyOp46
 70
     1
102
RTVSPropertyOp47
 70
     1
102
RTVSPropertyOp48
 70
     1
102
RTVSPropertyOp49
 70
     1
102
RTVSPropertyOp50
 70
     1
102
RTVSPropertyOp51
 70
     0
102
RTVSPropertyOp52
 70
     0
102
RTVSPropertyOp53
 70
     1
102
RTVSPropertyOp54
 70
     1
102
RTVSPropertyOp55
 70
     1
102
RTVSPropertyOp56
 70
     1
102
RTVSPropertyOp57
 70
     1
102
RTVSPost2010Prop28
280
     0
102
RTVSPost2010PropOp28
 70
     1
102
RTVSPost2010Prop29
280
     1
102
RTVSPost2010PropOp29
 70
     1
102
RTVSPost2010Prop30
280
     1
102
RTVSPost2010PropOp30
 70
     1
102
RTVSPost2010Prop31
280
     0
102
RTVSPost2010PropOp31
 70
     1
102
RTVSPost2010Prop32
280
     0
102
RTVSPost2010PropOp32
 70
     1
102
RTVSPost2010Prop33
280
     0
102
RTVSPost2010PropOp33
 70
     1
102
RTVSPost2010Prop34
280
     0
102
RTVSPost2010PropOp34
 70
     1
102
RTVSPost2010Prop35
280
     0
102
RTVSPost2010PropOp35
 70
     1
102
RTVSPost2010Prop36
280
     0
102
RTVSPost2010PropOp36
 70
     1
102
RTVSPost2010Prop37
 90
       50
102
RTVSPost2010PropOp37
 70
     1
102
RTVSPost2010Prop38
140
0.0
102
RTVSPost2010PropOp38
 70
     1
102
RTVSPost2010Prop39
140
1.0
102
RTVSPost2010PropOp39
 70
     1
102
RTVSPost2010Prop40
 90
        0
102
RTVSPost2010PropOp40
 70
     1
102
RTVSPost2010Prop41ColorIndex
 90
       18
102
RTVSPost2010Prop41ColorRGB
 90
        0
102
RTVSPost2010PropOp41
 70
     1
102
RTVSPost2010Prop42
 90
       50
102
RTVSPost2010PropOp42
 70
     1
102
RTVSPost2010Prop43
 90
        3
102
RTVSPost2010PropOp43
 70
     1
102
RTVSPost2010Prop44ColorIndex
 90
        5
102
RTVSPost2010Prop44ColorRGB
 90
      255
102
RTVSPost2010PropOp44
 70
     1
102
RTVSPost2010Prop45
280
     0
102
RTVSPost2010PropOp45
 70
     1
102
RTVSPost2010Prop46
 90
       50
102
RTVSPost2010PropOp46
 70
     1
102
RTVSPost2010Prop47
 90
       50
102
RTVSPost2010PropOp47
 70
     1
102
RTVSPost2010Prop48
 90
       50
102
RTVSPost2010PropOp48
 70
     1
102
RTVSPost2010Prop49
280
     0
102
RTVSPost2010PropOp49
 70
     1
102
RTVSPost2010Prop50
 90
       50
102
RTVSPost2010PropOp50
 70
     1
102
RTVSPost2010Prop51ColorIndex
 90
      256
102
RTVSPost2010Prop51ColorRGB
 90
-16777216
102
RTVSPost2010PropOp51
 70
     0
102
RTVSPost2010Prop52
140
1.0
102
RTVSPost2010PropOp52
 70
     0
102
RTVSPost2010Prop53
 90
        2
102
RTVSPost2010PropOp53
 70
     1
102
RTVSPost2010Prop54
  1
strokes_ogs.tif
102
RTVSPost2010PropOp54
 70
     1
102
RTVSPost2010Prop55
280
     0
102
RTVSPost2010PropOp55
 70
     1
102
RTVSPost2010Prop56
140
1.0
102
RTVSPost2010PropOp56
 70
     1
102
RTVSPost2010Prop57
140
1.0
102
RTVSPost2010PropOp57
 70
     1
  0
XRECORD
  5
419
102
{ACAD_REACTORS
330
418
102
}
330
418
100
AcDbXrecord
280
     1
102
RTVSPropertyOp0
 70
     1
102
RTVSPropertyOp1
 70
     1
102
RTVSPropertyOp2
 70
     1
102
RTVSPropertyOp3
 70
     1
102
RTVSPropertyOp4
 70
     1
102
RTVSPropertyOp5
 70
     1
102
RTVSPropertyOp6
 70
     1
102
RTVSPropertyOp7
 70
     1
102
RTVSPropertyOp8
 70
     1
102
RTVSPropertyOp9
 70
     1
102
RTVSPropertyOp10
 70
     1
102
RTVSPropertyOp11
 70
     1
102
RTVSPropertyOp12
 70
     1
102
RTVSPropertyOp13
 70
     1
102
RTVSPropertyOp14
 70
     1
102
RTVSPropertyOp15
 70
     1
102
RTVSPropertyOp16
 70
     1
102
RTVSPropertyOp17
 70
     1
102
RTVSPropertyOp18
 70
     1
102
RTVSPropertyOp19
 70
     1
102
RTVSPropertyOp20
 70
     1
102
RTVSPropertyOp21
 70
     1
102
RTVSPropertyOp22
 70
     1
102
RTVSPropertyOp23
 70
     1
102
RTVSPropertyOp24
 70
     1
102
RTVSPropertyOp25
 70
     1
102
RTVSPropertyOp26
 70
     1
102
RTVSPropertyOp27
 70
     1
102
RTVSPropertyOp28
 70
     1
102
RTVSPropertyOp29
 70
     1
102
RTVSPropertyOp30
 70
     1
102
RTVSPropertyOp31
 70
     1
102
RTVSPropertyOp32
 70
     1
102
RTVSPropertyOp33
 70
     1
102
RTVSPropertyOp34
 70
     1
102
RTVSPropertyOp35
 70
     1
102
RTVSPropertyOp36
 70
     1
102
RTVSPropertyOp37
 70
     1
102
RTVSPropertyOp38
 70
     1
102
RTVSPropertyOp39
 70
     1
102
RTVSPropertyOp40
 70
     1
102
RTVSPropertyOp41
 70
     1
102
RTVSPropertyOp42
 70
     1
102
RTVSPropertyOp43
 70
     1
102
RTVSPropertyOp44
 70
     1
102
RTVSPropertyOp45
 70
     1
102
RTVSPropertyOp46
 70
     1
102
RTVSPropertyOp47
 70
     1
102
RTVSPropertyOp48
 70
     1
102
RTVSPropertyOp49
 70
     1
102
RTVSPropertyOp50
 70
     1
102
RTVSPropertyOp51
 70
     0
102
RTVSPropertyOp52
 70
     0
102
RTVSPropertyOp53
 70
     1
102
RTVSPropertyOp54
 70
     1
102
RTVSPropertyOp55
 70
     1
102
RTVSPropertyOp56
 70
     1
102
RTVSPropertyOp57
 70
     1
102
RTVSPost2010Prop28
280
     0
102
RTVSPost2010PropOp28
 70
     1
102
RTVSPost2010Prop29
280
     1
102
RTVSPost2010PropOp29
 70
     1
102
RTVSPost2010Prop30
280
     1
102
RTVSPost2010PropOp30
 70
     1
102
RTVSPost2010Prop31
280
     0
102
RTVSPost2010PropOp31
 70
     1
102
RTVSPost2010Prop32
280
     0
102
RTVSPost2010PropOp32
 70
     1
102
RTVSPost2010Prop33
280
     0
102
RTVSPost2010PropOp33
 70
     1
102
RTVSPost2010Prop34
280
     0
102
RTVSPost2010PropOp34
 70
     1
102
RTVSPost2010Prop35
280
     0
102
RTVSPost2010PropOp35
 70
     1
102
RTVSPost2010Prop36
280
     0
102
RTVSPost2010PropOp36
 70
     1
102
RTVSPost2010Prop37
 90
       50
102
RTVSPost2010PropOp37
 70
     1
102
RTVSPost2010Prop38
140
0.0
102
RTVSPost2010PropOp38
 70
     1
102
RTVSPost2010Prop39
140
1.0
102
RTVSPost2010PropOp39
 70
     1
102
RTVSPost2010Prop40
 90
        0
102
RTVSPost2010PropOp40
 70
     1
102
RTVSPost2010Prop41ColorIndex
 90
       18
102
RTVSPost2010Prop41ColorRGB
 90
        0
102
RTVSPost2010PropOp41
 70
     1
102
RTVSPost2010Prop42
 90
       50
102
RTVSPost2010PropOp42
 70
     1
102
RTVSPost2010Prop43
 90
        3
102
RTVSPost2010PropOp43
 70
     1
102
RTVSPost2010Prop44ColorIndex
 90
        5
102
RTVSPost2010Prop44ColorRGB
 90
      255
102
RTVSPost2010PropOp44
 70
     1
102
RTVSPost2010Prop45
280
     0
102
RTVSPost2010PropOp45
 70
     1
102
RTVSPost2010Prop46
 90
       50
102
RTVSPost2010PropOp46
 70
     1
102
RTVSPost2010Prop47
 90
       50
102
RTVSPost2010PropOp47
 70
     1
102
RTVSPost2010Prop48
 90
       50
102
RTVSPost2010PropOp48
 70
     1
102
RTVSPost2010Prop49
280
     0
102
RTVSPost2010PropOp49
 70
     1
102
RTVSPost2010Prop50
 90
       50
102
RTVSPost2010PropOp50
 70
     1
102
RTVSPost2010Prop51ColorIndex
 90
      256
102
RTVSPost2010Prop51ColorRGB
 90
-16777216
102
RTVSPost2010PropOp51
 70
     0
102
RTVSPost2010Prop52
140
1.0
102
RTVSPost2010PropOp52
 70
     0
102
RTVSPost2010Prop53
 90
        2
102
RTVSPost2010PropOp53
 70
     1
102
RTVSPost2010Prop54
  1
strokes_ogs.tif
102
RTVSPost2010PropOp54
 70
     1
102
RTVSPost2010Prop55
280
     0
102
RTVSPost2010PropOp55
 70
     1
102
RTVSPost2010Prop56
140
1.0
102
RTVSPost2010PropOp56
 70
     1
102
RTVSPost2010Prop57
140
1.0
102
RTVSPost2010PropOp57
 70
     1
  0
XRECORD
  5
41B
102
{ACAD_REACTORS
330
41A
102
}
330
41A
100
AcDbXrecord
280
     1
102
RTVSPropertyOp0
 70
     1
102
RTVSPropertyOp1
 70
     1
102
RTVSPropertyOp2
 70
     1
102
RTVSPropertyOp3
 70
     1
102
RTVSPropertyOp4
 70
     1
102
RTVSPropertyOp5
 70
     1
102
RTVSPropertyOp6
 70
     1
102
RTVSPropertyOp7
 70
     1
102
RTVSPropertyOp8
 70
     1
102
RTVSPropertyOp9
 70
     1
102
RTVSPropertyOp10
 70
     1
102
RTVSPropertyOp11
 70
     1
102
RTVSPropertyOp12
 70
     1
102
RTVSPropertyOp13
 70
     1
102
RTVSPropertyOp14
 70
     1
102
RTVSPropertyOp15
 70
     1
102
RTVSPropertyOp16
 70
     1
102
RTVSPropertyOp17
 70
     1
102
RTVSPropertyOp18
 70
     1
102
RTVSPropertyOp19
 70
     1
102
RTVSPropertyOp20
 70
     1
102
RTVSPropertyOp21
 70
     1
102
RTVSPropertyOp22
 70
     1
102
RTVSPropertyOp23
 70
     1
102
RTVSPropertyOp24
 70
     1
102
RTVSPropertyOp25
 70
     1
102
RTVSPropertyOp26
 70
     1
102
RTVSPropertyOp27
 70
     1
102
RTVSPropertyOp28
 70
     1
102
RTVSPropertyOp29
 70
     1
102
RTVSPropertyOp30
 70
     1
102
RTVSPropertyOp31
 70
     1
102
RTVSPropertyOp32
 70
     1
102
RTVSPropertyOp33
 70
     1
102
RTVSPropertyOp34
 70
     1
102
RTVSPropertyOp35
 70
     1
102
RTVSPropertyOp36
 70
     1
102
RTVSPropertyOp37
 70
     1
102
RTVSPropertyOp38
 70
     1
102
RTVSPropertyOp39
 70
     1
102
RTVSPropertyOp40
 70
     1
102
RTVSPropertyOp41
 70
     1
102
RTVSPropertyOp42
 70
     1
102
RTVSPropertyOp43
 70
     1
102
RTVSPropertyOp44
 70
     1
102
RTVSPropertyOp45
 70
     1
102
RTVSPropertyOp46
 70
     1
102
RTVSPropertyOp47
 70
     1
102
RTVSPropertyOp48
 70
     1
102
RTVSPropertyOp49
 70
     1
102
RTVSPropertyOp50
 70
     1
102
RTVSPropertyOp51
 70
     0
102
RTVSPropertyOp52
 70
     0
102
RTVSPropertyOp53
 70
     1
102
RTVSPropertyOp54
 70
     1
102
RTVSPropertyOp55
 70
     1
102
RTVSPropertyOp56
 70
     1
102
RTVSPropertyOp57
 70
     1
102
RTVSPost2010Prop28
280
     0
102
RTVSPost2010PropOp28
 70
     1
102
RTVSPost2010Prop29
280
     1
102
RTVSPost2010PropOp29
 70
     1
102
RTVSPost2010Prop30
280
     1
102
RTVSPost2010PropOp30
 70
     1
102
RTVSPost2010Prop31
280
     0
102
RTVSPost2010PropOp31
 70
     1
102
RTVSPost2010Prop32
280
     0
102
RTVSPost2010PropOp32
 70
     1
102
RTVSPost2010Prop33
280
     0
102
RTVSPost2010PropOp33
 70
     1
102
RTVSPost2010Prop34
280
     0
102
RTVSPost2010PropOp34
 70
     1
102
RTVSPost2010Prop35
280
     0
102
RTVSPost2010PropOp35
 70
     1
102
RTVSPost2010Prop36
280
     0
102
RTVSPost2010PropOp36
 70
     1
102
RTVSPost2010Prop37
 90
       50
102
RTVSPost2010PropOp37
 70
     1
102
RTVSPost2010Prop38
140
0.0
102
RTVSPost2010PropOp38
 70
     1
102
RTVSPost2010Prop39
140
1.0
102
RTVSPost2010PropOp39
 70
     1
102
RTVSPost2010Prop40
 90
        0
102
RTVSPost2010PropOp40
 70
     1
102
RTVSPost2010Prop41ColorIndex
 90
       18
102
RTVSPost2010Prop41ColorRGB
 90
        0
102
RTVSPost2010PropOp41
 70
     1
102
RTVSPost2010Prop42
 90
       50
102
RTVSPost2010PropOp42
 70
     1
102
RTVSPost2010Prop43
 90
        3
102
RTVSPost2010PropOp43
 70
     1
102
RTVSPost2010Prop44ColorIndex
 90
        5
102
RTVSPost2010Prop44ColorRGB
 90
      255
102
RTVSPost2010PropOp44
 70
     1
102
RTVSPost2010Prop45
280
     0
102
RTVSPost2010PropOp45
 70
     1
102
RTVSPost2010Prop46
 90
       50
102
RTVSPost2010PropOp46
 70
     1
102
RTVSPost2010Prop47
 90
       50
102
RTVSPost2010PropOp47
 70
     1
102
RTVSPost2010Prop48
 90
       50
102
RTVSPost2010PropOp48
 70
     1
102
RTVSPost2010Prop49
280
     0
102
RTVSPost2010PropOp49
 70
     1
102
RTVSPost2010Prop50
 90
       50
102
RTVSPost2010PropOp50
 70
     1
102
RTVSPost2010Prop51ColorIndex
 90
      256
102
RTVSPost2010Prop51ColorRGB
 90
-16777216
102
RTVSPost2010PropOp51
 70
     0
102
RTVSPost2010Prop52
140
1.0
102
RTVSPost2010PropOp52
 70
     0
102
RTVSPost2010Prop53
 90
        2
102
RTVSPost2010PropOp53
 70
     1
102
RTVSPost2010Prop54
  1
strokes_ogs.tif
102
RTVSPost2010PropOp54
 70
     1
102
RTVSPost2010Prop55
280
     0
102
RTVSPost2010PropOp55
 70
     1
102
RTVSPost2010Prop56
140
1.0
102
RTVSPost2010PropOp56
 70
     1
102
RTVSPost2010Prop57
140
1.0
102
RTVSPost2010PropOp57
 70
     1
  0
XRECORD
  5
41D
102
{ACAD_REACTORS
330
41C
102
}
330
41C
100
AcDbXrecord
280
     1
102
RTVSPropertyOp0
 70
     1
102
RTVSPropertyOp1
 70
     1
102
RTVSPropertyOp2
 70
     1
102
RTVSPropertyOp3
 70
     1
102
RTVSPropertyOp4
 70
     1
102
RTVSPropertyOp5
 70
     1
102
RTVSPropertyOp6
 70
     1
102
RTVSPropertyOp7
 70
     1
102
RTVSPropertyOp8
 70
     1
102
RTVSPropertyOp9
 70
     1
102
RTVSPropertyOp10
 70
     1
102
RTVSPropertyOp11
 70
     1
102
RTVSPropertyOp12
 70
     1
102
RTVSPropertyOp13
 70
     1
102
RTVSPropertyOp14
 70
     1
102
RTVSPropertyOp15
 70
     1
102
RTVSPropertyOp16
 70
     1
102
RTVSPropertyOp17
 70
     1
102
RTVSPropertyOp18
 70
     1
102
RTVSPropertyOp19
 70
     1
102
RTVSPropertyOp20
 70
     1
102
RTVSPropertyOp21
 70
     1
102
RTVSPropertyOp22
 70
     1
102
RTVSPropertyOp23
 70
     1
102
RTVSPropertyOp24
 70
     1
102
RTVSPropertyOp25
 70
     1
102
RTVSPropertyOp26
 70
     1
102
RTVSPropertyOp27
 70
     1
102
RTVSPropertyOp28
 70
     1
102
RTVSPropertyOp29
 70
     1
102
RTVSPropertyOp30
 70
     1
102
RTVSPropertyOp31
 70
     1
102
RTVSPropertyOp32
 70
     1
102
RTVSPropertyOp33
 70
     1
102
RTVSPropertyOp34
 70
     1
102
RTVSPropertyOp35
 70
     1
102
RTVSPropertyOp36
 70
     1
102
RTVSPropertyOp37
 70
     1
102
RTVSPropertyOp38
 70
     1
102
RTVSPropertyOp39
 70
     1
102
RTVSPropertyOp40
 70
     1
102
RTVSPropertyOp41
 70
     1
102
RTVSPropertyOp42
 70
     1
102
RTVSPropertyOp43
 70
     1
102
RTVSPropertyOp44
 70
     1
102
RTVSPropertyOp45
 70
     1
102
RTVSPropertyOp46
 70
     1
102
RTVSPropertyOp47
 70
     1
102
RTVSPropertyOp48
 70
     1
102
RTVSPropertyOp49
 70
     1
102
RTVSPropertyOp50
 70
     1
102
RTVSPropertyOp51
 70
     0
102
RTVSPropertyOp52
 70
     0
102
RTVSPropertyOp53
 70
     1
102
RTVSPropertyOp54
 70
     1
102
RTVSPropertyOp55
 70
     1
102
RTVSPropertyOp56
 70
     1
102
RTVSPropertyOp57
 70
     1
102
RTVSPost2010Prop28
280
     0
102
RTVSPost2010PropOp28
 70
     1
102
RTVSPost2010Prop29
280
     1
102
RTVSPost2010PropOp29
 70
     1
102
RTVSPost2010Prop30
280
     1
102
RTVSPost2010PropOp30
 70
     1
102
RTVSPost2010Prop31
280
     0
102
RTVSPost2010PropOp31
 70
     1
102
RTVSPost2010Prop32
280
     0
102
RTVSPost2010PropOp32
 70
     1
102
RTVSPost2010Prop33
280
     0
102
RTVSPost2010PropOp33
 70
     1
102
RTVSPost2010Prop34
280
     0
102
RTVSPost2010PropOp34
 70
     1
102
RTVSPost2010Prop35
280
     0
102
RTVSPost2010PropOp35
 70
     1
102
RTVSPost2010Prop36
280
     0
102
RTVSPost2010PropOp36
 70
     1
102
RTVSPost2010Prop37
 90
       50
102
RTVSPost2010PropOp37
 70
     1
102
RTVSPost2010Prop38
140
0.0
102
RTVSPost2010PropOp38
 70
     1
102
RTVSPost2010Prop39
140
1.0
102
RTVSPost2010PropOp39
 70
     1
102
RTVSPost2010Prop40
 90
        0
102
RTVSPost2010PropOp40
 70
     1
102
RTVSPost2010Prop41ColorIndex
 90
       18
102
RTVSPost2010Prop41ColorRGB
 90
        0
102
RTVSPost2010PropOp41
 70
     1
102
RTVSPost2010Prop42
 90
       50
102
RTVSPost2010PropOp42
 70
     1
102
RTVSPost2010Prop43
 90
        3
102
RTVSPost2010PropOp43
 70
     1
102
RTVSPost2010Prop44ColorIndex
 90
        5
102
RTVSPost2010Prop44ColorRGB
 90
      255
102
RTVSPost2010PropOp44
 70
     1
102
RTVSPost2010Prop45
280
     0
102
RTVSPost2010PropOp45
 70
     1
102
RTVSPost2010Prop46
 90
       50
102
RTVSPost2010PropOp46
 70
     1
102
RTVSPost2010Prop47
 90
       50
102
RTVSPost2010PropOp47
 70
     1
102
RTVSPost2010Prop48
 90
       50
102
RTVSPost2010PropOp48
 70
     1
102
RTVSPost2010Prop49
280
     0
102
RTVSPost2010PropOp49
 70
     1
102
RTVSPost2010Prop50
 90
       50
102
RTVSPost2010PropOp50
 70
     1
102
RTVSPost2010Prop51ColorIndex
 90
      256
102
RTVSPost2010Prop51ColorRGB
 90
-16777216
102
RTVSPost2010PropOp51
 70
     0
102
RTVSPost2010Prop52
140
1.0
102
RTVSPost2010PropOp52
 70
     0
102
RTVSPost2010Prop53
 90
        2
102
RTVSPost2010PropOp53
 70
     1
102
RTVSPost2010Prop54
  1
strokes_ogs.tif
102
RTVSPost2010PropOp54
 70
     1
102
RTVSPost2010Prop55
280
     0
102
RTVSPost2010PropOp55
 70
     1
102
RTVSPost2010Prop56
140
1.0
102
RTVSPost2010PropOp56
 70
     1
102
RTVSPost2010Prop57
140
1.0
102
RTVSPost2010PropOp57
 70
     1
  0
XRECORD
  5
423
102
{ACAD_REACTORS
330
422
102
}
330
422
100
AcDbXrecord
280
     1
102
RTVSPropertyOp0
 70
     1
102
RTVSPropertyOp1
 70
     1
102
RTVSPropertyOp2
 70
     1
102
RTVSPropertyOp3
 70
     1
102
RTVSPropertyOp4
 70
     1
102
RTVSPropertyOp5
 70
     1
102
RTVSPropertyOp6
 70
     1
102
RTVSPropertyOp7
 70
     1
102
RTVSPropertyOp8
 70
     1
102
RTVSPropertyOp9
 70
     1
102
RTVSPropertyOp10
 70
     1
102
RTVSPropertyOp11
 70
     1
102
RTVSPropertyOp12
 70
     1
102
RTVSPropertyOp13
 70
     1
102
RTVSPropertyOp14
 70
     1
102
RTVSPropertyOp15
 70
     1
102
RTVSPropertyOp16
 70
     1
102
RTVSPropertyOp17
 70
     1
102
RTVSPropertyOp18
 70
     1
102
RTVSPropertyOp19
 70
     1
102
RTVSPropertyOp20
 70
     1
102
RTVSPropertyOp21
 70
     1
102
RTVSPropertyOp22
 70
     1
102
RTVSPropertyOp23
 70
     1
102
RTVSPropertyOp24
 70
     1
102
RTVSPropertyOp25
 70
     1
102
RTVSPropertyOp26
 70
     1
102
RTVSPropertyOp27
 70
     1
102
RTVSPropertyOp28
 70
     1
102
RTVSPropertyOp29
 70
     1
102
RTVSPropertyOp30
 70
     1
102
RTVSPropertyOp31
 70
     1
102
RTVSPropertyOp32
 70
     1
102
RTVSPropertyOp33
 70
     1
102
RTVSPropertyOp34
 70
     1
102
RTVSPropertyOp35
 70
     1
102
RTVSPropertyOp36
 70
     1
102
RTVSPropertyOp37
 70
     1
102
RTVSPropertyOp38
 70
     1
102
RTVSPropertyOp39
 70
     1
102
RTVSPropertyOp40
 70
     1
102
RTVSPropertyOp41
 70
     1
102
RTVSPropertyOp42
 70
     1
102
RTVSPropertyOp43
 70
     1
102
RTVSPropertyOp44
 70
     1
102
RTVSPropertyOp45
 70
     1
102
RTVSPropertyOp46
 70
     1
102
RTVSPropertyOp47
 70
     1
102
RTVSPropertyOp48
 70
     1
102
RTVSPropertyOp49
 70
     1
102
RTVSPropertyOp50
 70
     1
102
RTVSPropertyOp51
 70
     0
102
RTVSPropertyOp52
 70
     0
102
RTVSPropertyOp53
 70
     1
102
RTVSPropertyOp54
 70
     1
102
RTVSPropertyOp55
 70
     1
102
RTVSPropertyOp56
 70
     1
102
RTVSPropertyOp57
 70
     1
102
RTVSPost2010Prop28
280
     0
102
RTVSPost2010PropOp28
 70
     1
102
RTVSPost2010Prop29
280
     1
102
RTVSPost2010PropOp29
 70
     1
102
RTVSPost2010Prop30
280
     1
102
RTVSPost2010PropOp30
 70
     1
102
RTVSPost2010Prop31
280
     0
102
RTVSPost2010PropOp31
 70
     1
102
RTVSPost2010Prop32
280
     0
102
RTVSPost2010PropOp32
 70
     1
102
RTVSPost2010Prop33
280
     0
102
RTVSPost2010PropOp33
 70
     1
102
RTVSPost2010Prop34
280
     0
102
RTVSPost2010PropOp34
 70
     1
102
RTVSPost2010Prop35
280
     0
102
RTVSPost2010PropOp35
 70
     1
102
RTVSPost2010Prop36
280
     0
102
RTVSPost2010PropOp36
 70
     1
102
RTVSPost2010Prop37
 90
       50
102
RTVSPost2010PropOp37
 70
     1
102
RTVSPost2010Prop38
140
0.0
102
RTVSPost2010PropOp38
 70
     1
102
RTVSPost2010Prop39
140
1.0
102
RTVSPost2010PropOp39
 70
     1
102
RTVSPost2010Prop40
 90
        0
102
RTVSPost2010PropOp40
 70
     1
102
RTVSPost2010Prop41ColorIndex
 90
       18
102
RTVSPost2010Prop41ColorRGB
 90
        0
102
RTVSPost2010PropOp41
 70
     1
102
RTVSPost2010Prop42
 90
       50
102
RTVSPost2010PropOp42
 70
     1
102
RTVSPost2010Prop43
 90
        3
102
RTVSPost2010PropOp43
 70
     1
102
RTVSPost2010Prop44ColorIndex
 90
        5
102
RTVSPost2010Prop44ColorRGB
 90
      255
102
RTVSPost2010PropOp44
 70
     1
102
RTVSPost2010Prop45
280
     0
102
RTVSPost2010PropOp45
 70
     1
102
RTVSPost2010Prop46
 90
       50
102
RTVSPost2010PropOp46
 70
     1
102
RTVSPost2010Prop47
 90
       50
102
RTVSPost2010PropOp47
 70
     1
102
RTVSPost2010Prop48
 90
       50
102
RTVSPost2010PropOp48
 70
     1
102
RTVSPost2010Prop49
280
     0
102
RTVSPost2010PropOp49
 70
     1
102
RTVSPost2010Prop50
 90
       50
102
RTVSPost2010PropOp50
 70
     1
102
RTVSPost2010Prop51ColorIndex
 90
      256
102
RTVSPost2010Prop51ColorRGB
 90
-16777216
102
RTVSPost2010PropOp51
 70
     0
102
RTVSPost2010Prop52
140
1.0
102
RTVSPost2010PropOp52
 70
     0
102
RTVSPost2010Prop53
 90
        2
102
RTVSPost2010PropOp53
 70
     1
102
RTVSPost2010Prop54
  1
strokes_ogs.tif
102
RTVSPost2010PropOp54
 70
     1
102
RTVSPost2010Prop55
280
     0
102
RTVSPost2010PropOp55
 70
     1
102
RTVSPost2010Prop56
140
1.0
102
RTVSPost2010PropOp56
 70
     1
102
RTVSPost2010Prop57
140
1.0
102
RTVSPost2010PropOp57
 70
     1
  0
XRECORD
  5
437
102
{ACAD_REACTORS
330
436
102
}
330
436
100
AcDbXrecord
280
     1
102
RTVSPropertyOp0
 70
     0
102
RTVSPropertyOp1
 70
     0
102
RTVSPropertyOp2
 70
     0
102
RTVSPropertyOp3
 70
     0
102
RTVSPropertyOp4
 70
     0
102
RTVSPropertyOp5
 70
     0
102
RTVSPropertyOp6
 70
     0
102
RTVSPropertyOp7
 70
     0
102
RTVSPropertyOp8
 70
     0
102
RTVSPropertyOp9
 70
     0
102
RTVSPropertyOp10
 70
     0
102
RTVSPropertyOp11
 70
     0
102
RTVSPropertyOp12
 70
     0
102
RTVSPropertyOp13
 70
     0
102
RTVSPropertyOp14
 70
     2
102
RTVSPropertyOp15
 70
     0
102
RTVSPropertyOp16
 70
     0
102
RTVSPropertyOp17
 70
     0
102
RTVSPropertyOp18
 70
     0
102
RTVSPropertyOp19
 70
     0
102
RTVSPropertyOp20
 70
     0
102
RTVSPropertyOp21
 70
     0
102
RTVSPropertyOp22
 70
     0
102
RTVSPropertyOp23
 70
     0
102
RTVSPropertyOp24
 70
     0
102
RTVSPropertyOp25
 70
     0
102
RTVSPropertyOp26
 70
     0
102
RTVSPropertyOp27
 70
     0
102
RTVSPropertyOp28
 70
     0
102
RTVSPropertyOp29
 70
     0
102
RTVSPropertyOp30
 70
     0
102
RTVSPropertyOp31
 70
     0
102
RTVSPropertyOp32
 70
     0
102
RTVSPropertyOp33
 70
     0
102
RTVSPropertyOp34
 70
     0
102
RTVSPropertyOp35
 70
     0
102
RTVSPropertyOp36
 70
     0
102
RTVSPropertyOp37
 70
     0
102
RTVSPropertyOp38
 70
     0
102
RTVSPropertyOp39
 70
     0
102
RTVSPropertyOp40
 70
     0
102
RTVSPropertyOp41
 70
     0
102
RTVSPropertyOp42
 70
     0
102
RTVSPropertyOp43
 70
     0
102
RTVSPropertyOp44
 70
     0
102
RTVSPropertyOp45
 70
     0
102
RTVSPropertyOp46
 70
     0
102
RTVSPropertyOp47
 70
     0
102
RTVSPropertyOp48
 70
     0
102
RTVSPropertyOp49
 70
     0
102
RTVSPropertyOp50
 70
     0
102
RTVSPropertyOp51
 70
     0
102
RTVSPropertyOp52
 70
     0
102
RTVSPropertyOp53
 70
     0
102
RTVSPropertyOp54
 70
     0
102
RTVSPropertyOp55
 70
     0
102
RTVSPropertyOp56
 70
     0
102
RTVSPropertyOp57
 70
     0
102
RTVSPost2010Prop28
280
     0
102
RTVSPost2010PropOp28
 70
     0
102
RTVSPost2010Prop29
280
     1
102
RTVSPost2010PropOp29
 70
     0
102
RTVSPost2010Prop30
280
     1
102
RTVSPost2010PropOp30
 70
     0
102
RTVSPost2010Prop31
280
     0
102
RTVSPost2010PropOp31
 70
     0
102
RTVSPost2010Prop32
280
     0
102
RTVSPost2010PropOp32
 70
     0
102
RTVSPost2010Prop33
280
     0
102
RTVSPost2010PropOp33
 70
     0
102
RTVSPost2010Prop34
280
     0
102
RTVSPost2010PropOp34
 70
     0
102
RTVSPost2010Prop35
280
     0
102
RTVSPost2010PropOp35
 70
     0
102
RTVSPost2010Prop36
280
     0
102
RTVSPost2010PropOp36
 70
     0
102
RTVSPost2010Prop37
 90
       50
102
RTVSPost2010PropOp37
 70
     0
102
RTVSPost2010Prop38
140
0.0
102
RTVSPost2010PropOp38
 70
     0
102
RTVSPost2010Prop39
140
1.0
102
RTVSPost2010PropOp39
 70
     0
102
RTVSPost2010Prop40
 90
        0
102
RTVSPost2010PropOp40
 70
     0
102
RTVSPost2010Prop41ColorIndex
 90
       18
102
RTVSPost2010Prop41ColorRGB
 90
        0
102
RTVSPost2010PropOp41
 70
     0
102
RTVSPost2010Prop42
 90
       50
102
RTVSPost2010PropOp42
 70
     0
102
RTVSPost2010Prop43
 90
        3
102
RTVSPost2010PropOp43
 70
     0
102
RTVSPost2010Prop44ColorIndex
 90
        5
102
RTVSPost2010Prop44ColorRGB
 90
      255
102
RTVSPost2010PropOp44
 70
     0
102
RTVSPost2010Prop45
280
     0
102
RTVSPost2010PropOp45
 70
     0
102
RTVSPost2010Prop46
 90
       50
102
RTVSPost2010PropOp46
 70
     0
102
RTVSPost2010Prop47
 90
       50
102
RTVSPost2010PropOp47
 70
     0
102
RTVSPost2010Prop48
 90
       50
102
RTVSPost2010PropOp48
 70
     0
102
RTVSPost2010Prop49
280
     0
102
RTVSPost2010PropOp49
 70
     0
102
RTVSPost2010Prop50
 90
       50
102
RTVSPost2010PropOp50
 70
     0
102
RTVSPost2010Prop51ColorIndex
 90
      256
102
RTVSPost2010Prop51ColorRGB
 90
-16777216
102
RTVSPost2010PropOp51
 70
     0
102
RTVSPost2010Prop52
140
1.0
102
RTVSPost2010PropOp52
 70
     0
102
RTVSPost2010Prop53
 90
        2
102
RTVSPost2010PropOp53
 70
     0
102
RTVSPost2010Prop54
  1
strokes_ogs.tif
102
RTVSPost2010PropOp54
 70
     0
102
RTVSPost2010Prop55
280
     0
102
RTVSPost2010PropOp55
 70
     0
102
RTVSPost2010Prop56
140
1.0
102
RTVSPost2010PropOp56
 70
     0
102
RTVSPost2010Prop57
140
1.0
102
RTVSPost2010PropOp57
 70
     0
  0
XRECORD
  5
431
102
{ACAD_REACTORS
330
430
102
}
330
430
100
AcDbXrecord
280
     1
102
RTVSPropertyOp0
 70
     1
102
RTVSPropertyOp1
 70
     1
102
RTVSPropertyOp2
 70
     1
102
RTVSPropertyOp3
 70
     1
102
RTVSPropertyOp4
 70
     1
102
RTVSPropertyOp5
 70
     1
102
RTVSPropertyOp6
 70
     1
102
RTVSPropertyOp7
 70
     1
102
RTVSPropertyOp8
 70
     1
102
RTVSPropertyOp9
 70
     1
102
RTVSPropertyOp10
 70
     1
102
RTVSPropertyOp11
 70
     1
102
RTVSPropertyOp12
 70
     1
102
RTVSPropertyOp13
 70
     1
102
RTVSPropertyOp14
 70
     1
102
RTVSPropertyOp15
 70
     1
102
RTVSPropertyOp16
 70
     1
102
RTVSPropertyOp17
 70
     1
102
RTVSPropertyOp18
 70
     1
102
RTVSPropertyOp19
 70
     1
102
RTVSPropertyOp20
 70
     1
102
RTVSPropertyOp21
 70
     1
102
RTVSPropertyOp22
 70
     1
102
RTVSPropertyOp23
 70
     1
102
RTVSPropertyOp24
 70
     1
102
RTVSPropertyOp25
 70
     1
102
RTVSPropertyOp26
 70
     1
102
RTVSPropertyOp27
 70
     1
102
RTVSPropertyOp28
 70
     1
102
RTVSPropertyOp29
 70
     1
102
RTVSPropertyOp30
 70
     1
102
RTVSPropertyOp31
 70
     1
102
RTVSPropertyOp32
 70
     1
102
RTVSPropertyOp33
 70
     1
102
RTVSPropertyOp34
 70
     1
102
RTVSPropertyOp35
 70
     1
102
RTVSPropertyOp36
 70
     1
102
RTVSPropertyOp37
 70
     1
102
RTVSPropertyOp38
 70
     1
102
RTVSPropertyOp39
 70
     1
102
RTVSPropertyOp40
 70
     1
102
RTVSPropertyOp41
 70
     1
102
RTVSPropertyOp42
 70
     1
102
RTVSPropertyOp43
 70
     1
102
RTVSPropertyOp44
 70
     1
102
RTVSPropertyOp45
 70
     1
102
RTVSPropertyOp46
 70
     1
102
RTVSPropertyOp47
 70
     1
102
RTVSPropertyOp48
 70
     1
102
RTVSPropertyOp49
 70
     1
102
RTVSPropertyOp50
 70
     1
102
RTVSPropertyOp51
 70
     0
102
RTVSPropertyOp52
 70
     0
102
RTVSPropertyOp53
 70
     1
102
RTVSPropertyOp54
 70
     1
102
RTVSPropertyOp55
 70
     1
102
RTVSPropertyOp56
 70
     1
102
RTVSPropertyOp57
 70
     1
102
RTVSPost2010Prop28
280
     0
102
RTVSPost2010PropOp28
 70
     1
102
RTVSPost2010Prop29
280
     1
102
RTVSPost2010PropOp29
 70
     1
102
RTVSPost2010Prop30
280
     1
102
RTVSPost2010PropOp30
 70
     1
102
RTVSPost2010Prop31
280
     0
102
RTVSPost2010PropOp31
 70
     1
102
RTVSPost2010Prop32
280
     0
102
RTVSPost2010PropOp32
 70
     1
102
RTVSPost2010Prop33
280
     0
102
RTVSPost2010PropOp33
 70
     1
102
RTVSPost2010Prop34
280
     0
102
RTVSPost2010PropOp34
 70
     1
102
RTVSPost2010Prop35
280
     0
102
RTVSPost2010PropOp35
 70
     1
102
RTVSPost2010Prop36
280
     0
102
RTVSPost2010PropOp36
 70
     1
102
RTVSPost2010Prop37
 90
       50
102
RTVSPost2010PropOp37
 70
     1
102
RTVSPost2010Prop38
140
0.0
102
RTVSPost2010PropOp38
 70
     1
102
RTVSPost2010Prop39
140
1.0
102
RTVSPost2010PropOp39
 70
     1
102
RTVSPost2010Prop40
 90
        0
102
RTVSPost2010PropOp40
 70
     1
102
RTVSPost2010Prop41ColorIndex
 90
       18
102
RTVSPost2010Prop41ColorRGB
 90
        0
102
RTVSPost2010PropOp41
 70
     1
102
RTVSPost2010Prop42
 90
       50
102
RTVSPost2010PropOp42
 70
     1
102
RTVSPost2010Prop43
 90
        3
102
RTVSPost2010PropOp43
 70
     1
102
RTVSPost2010Prop44ColorIndex
 90
        5
102
RTVSPost2010Prop44ColorRGB
 90
      255
102
RTVSPost2010PropOp44
 70
     1
102
RTVSPost2010Prop45
280
     0
102
RTVSPost2010PropOp45
 70
     1
102
RTVSPost2010Prop46
 90
       50
102
RTVSPost2010PropOp46
 70
     1
102
RTVSPost2010Prop47
 90
       50
102
RTVSPost2010PropOp47
 70
     1
102
RTVSPost2010Prop48
 90
       50
102
RTVSPost2010PropOp48
 70
     1
102
RTVSPost2010Prop49
280
     0
102
RTVSPost2010PropOp49
 70
     1
102
RTVSPost2010Prop50
 90
       50
102
RTVSPost2010PropOp50
 70
     1
102
RTVSPost2010Prop51ColorIndex
 90
      256
102
RTVSPost2010Prop51ColorRGB
 90
-16777216
102
RTVSPost2010PropOp51
 70
     0
102
RTVSPost2010Prop52
140
1.0
102
RTVSPost2010PropOp52
 70
     0
102
RTVSPost2010Prop53
 90
        2
102
RTVSPost2010PropOp53
 70
     1
102
RTVSPost2010Prop54
  1
strokes_ogs.tif
102
RTVSPost2010PropOp54
 70
     1
102
RTVSPost2010Prop55
280
     0
102
RTVSPost2010PropOp55
 70
     1
102
RTVSPost2010Prop56
140
1.0
102
RTVSPost2010PropOp56
 70
     1
102
RTVSPost2010Prop57
140
1.0
102
RTVSPost2010PropOp57
 70
     1
  0
XRECORD
  5
439
102
{ACAD_REACTORS
330
438
102
}
330
438
100
AcDbXrecord
280
     1
102
RTVSPropertyOp0
 70
     0
102
RTVSPropertyOp1
 70
     0
102
RTVSPropertyOp2
 70
     0
102
RTVSPropertyOp3
 70
     0
102
RTVSPropertyOp4
 70
     0
102
RTVSPropertyOp5
 70
     0
102
RTVSPropertyOp6
 70
     0
102
RTVSPropertyOp7
 70
     0
102
RTVSPropertyOp8
 70
     0
102
RTVSPropertyOp9
 70
     0
102
RTVSPropertyOp10
 70
     0
102
RTVSPropertyOp11
 70
     0
102
RTVSPropertyOp12
 70
     0
102
RTVSPropertyOp13
 70
     0
102
RTVSPropertyOp14
 70
     2
102
RTVSPropertyOp15
 70
     0
102
RTVSPropertyOp16
 70
     0
102
RTVSPropertyOp17
 70
     0
102
RTVSPropertyOp18
 70
     0
102
RTVSPropertyOp19
 70
     0
102
RTVSPropertyOp20
 70
     0
102
RTVSPropertyOp21
 70
     0
102
RTVSPropertyOp22
 70
     0
102
RTVSPropertyOp23
 70
     0
102
RTVSPropertyOp24
 70
     0
102
RTVSPropertyOp25
 70
     0
102
RTVSPropertyOp26
 70
     0
102
RTVSPropertyOp27
 70
     0
102
RTVSPropertyOp28
 70
     0
102
RTVSPropertyOp29
 70
     0
102
RTVSPropertyOp30
 70
     0
102
RTVSPropertyOp31
 70
     0
102
RTVSPropertyOp32
 70
     0
102
RTVSPropertyOp33
 70
     0
102
RTVSPropertyOp34
 70
     0
102
RTVSPropertyOp35
 70
     0
102
RTVSPropertyOp36
 70
     0
102
RTVSPropertyOp37
 70
     0
102
RTVSPropertyOp38
 70
     0
102
RTVSPropertyOp39
 70
     0
102
RTVSPropertyOp40
 70
     0
102
RTVSPropertyOp41
 70
     0
102
RTVSPropertyOp42
 70
     0
102
RTVSPropertyOp43
 70
     0
102
RTVSPropertyOp44
 70
     0
102
RTVSPropertyOp45
 70
     0
102
RTVSPropertyOp46
 70
     0
102
RTVSPropertyOp47
 70
     0
102
RTVSPropertyOp48
 70
     0
102
RTVSPropertyOp49
 70
     0
102
RTVSPropertyOp50
 70
     0
102
RTVSPropertyOp51
 70
     0
102
RTVSPropertyOp52
 70
     0
102
RTVSPropertyOp53
 70
     0
102
RTVSPropertyOp54
 70
     0
102
RTVSPropertyOp55
 70
     0
102
RTVSPropertyOp56
 70
     0
102
RTVSPropertyOp57
 70
     0
102
RTVSPost2010Prop28
280
     0
102
RTVSPost2010PropOp28
 70
     0
102
RTVSPost2010Prop29
280
     1
102
RTVSPost2010PropOp29
 70
     0
102
RTVSPost2010Prop30
280
     1
102
RTVSPost2010PropOp30
 70
     0
102
RTVSPost2010Prop31
280
     0
102
RTVSPost2010PropOp31
 70
     0
102
RTVSPost2010Prop32
280
     0
102
RTVSPost2010PropOp32
 70
     0
102
RTVSPost2010Prop33
280
     0
102
RTVSPost2010PropOp33
 70
     0
102
RTVSPost2010Prop34
280
     0
102
RTVSPost2010PropOp34
 70
     0
102
RTVSPost2010Prop35
280
     0
102
RTVSPost2010PropOp35
 70
     0
102
RTVSPost2010Prop36
280
     0
102
RTVSPost2010PropOp36
 70
     0
102
RTVSPost2010Prop37
 90
       50
102
RTVSPost2010PropOp37
 70
     0
102
RTVSPost2010Prop38
140
0.0
102
RTVSPost2010PropOp38
 70
     0
102
RTVSPost2010Prop39
140
1.0
102
RTVSPost2010PropOp39
 70
     0
102
RTVSPost2010Prop40
 90
        0
102
RTVSPost2010PropOp40
 70
     0
102
RTVSPost2010Prop41ColorIndex
 90
       18
102
RTVSPost2010Prop41ColorRGB
 90
        0
102
RTVSPost2010PropOp41
 70
     0
102
RTVSPost2010Prop42
 90
       50
102
RTVSPost2010PropOp42
 70
     0
102
RTVSPost2010Prop43
 90
        3
102
RTVSPost2010PropOp43
 70
     0
102
RTVSPost2010Prop44ColorIndex
 90
        5
102
RTVSPost2010Prop44ColorRGB
 90
      255
102
RTVSPost2010PropOp44
 70
     0
102
RTVSPost2010Prop45
280
     0
102
RTVSPost2010PropOp45
 70
     0
102
RTVSPost2010Prop46
 90
       50
102
RTVSPost2010PropOp46
 70
     0
102
RTVSPost2010Prop47
 90
       50
102
RTVSPost2010PropOp47
 70
     0
102
RTVSPost2010Prop48
 90
       50
102
RTVSPost2010PropOp48
 70
     0
102
RTVSPost2010Prop49
280
     0
102
RTVSPost2010PropOp49
 70
     0
102
RTVSPost2010Prop50
 90
       50
102
RTVSPost2010PropOp50
 70
     0
102
RTVSPost2010Prop51ColorIndex
 90
      256
102
RTVSPost2010Prop51ColorRGB
 90
-16777216
102
RTVSPost2010PropOp51
 70
     0
102
RTVSPost2010Prop52
140
1.0
102
RTVSPost2010PropOp52
 70
     0
102
RTVSPost2010Prop53
 90
        2
102
RTVSPost2010PropOp53
 70
     0
102
RTVSPost2010Prop54
  1
strokes_ogs.tif
102
RTVSPost2010PropOp54
 70
     0
102
RTVSPost2010Prop55
280
     0
102
RTVSPost2010PropOp55
 70
     0
102
RTVSPost2010Prop56
140
1.0
102
RTVSPost2010PropOp56
 70
     0
102
RTVSPost2010Prop57
140
1.0
102
RTVSPost2010PropOp57
 70
     0
  0
XRECORD
  5
427
102
{ACAD_REACTORS
330
426
102
}
330
426
100
AcDbXrecord
280
     1
102
RTVSPropertyOp0
 70
     1
102
RTVSPropertyOp1
 70
     1
102
RTVSPropertyOp2
 70
     1
102
RTVSPropertyOp3
 70
     1
102
RTVSPropertyOp4
 70
     1
102
RTVSPropertyOp5
 70
     1
102
RTVSPropertyOp6
 70
     1
102
RTVSPropertyOp7
 70
     1
102
RTVSPropertyOp8
 70
     1
102
RTVSPropertyOp9
 70
     1
102
RTVSPropertyOp10
 70
     1
102
RTVSPropertyOp11
 70
     1
102
RTVSPropertyOp12
 70
     1
102
RTVSPropertyOp13
 70
     1
102
RTVSPropertyOp14
 70
     1
102
RTVSPropertyOp15
 70
     1
102
RTVSPropertyOp16
 70
     1
102
RTVSPropertyOp17
 70
     1
102
RTVSPropertyOp18
 70
     1
102
RTVSPropertyOp19
 70
     1
102
RTVSPropertyOp20
 70
     1
102
RTVSPropertyOp21
 70
     1
102
RTVSPropertyOp22
 70
     1
102
RTVSPropertyOp23
 70
     1
102
RTVSPropertyOp24
 70
     1
102
RTVSPropertyOp25
 70
     1
102
RTVSPropertyOp26
 70
     1
102
RTVSPropertyOp27
 70
     1
102
RTVSPropertyOp28
 70
     1
102
RTVSPropertyOp29
 70
     1
102
RTVSPropertyOp30
 70
     1
102
RTVSPropertyOp31
 70
     1
102
RTVSPropertyOp32
 70
     1
102
RTVSPropertyOp33
 70
     1
102
RTVSPropertyOp34
 70
     1
102
RTVSPropertyOp35
 70
     1
102
RTVSPropertyOp36
 70
     1
102
RTVSPropertyOp37
 70
     1
102
RTVSPropertyOp38
 70
     1
102
RTVSPropertyOp39
 70
     1
102
RTVSPropertyOp40
 70
     1
102
RTVSPropertyOp41
 70
     1
102
RTVSPropertyOp42
 70
     1
102
RTVSPropertyOp43
 70
     1
102
RTVSPropertyOp44
 70
     1
102
RTVSPropertyOp45
 70
     1
102
RTVSPropertyOp46
 70
     1
102
RTVSPropertyOp47
 70
     1
102
RTVSPropertyOp48
 70
     1
102
RTVSPropertyOp49
 70
     1
102
RTVSPropertyOp50
 70
     1
102
RTVSPropertyOp51
 70
     0
102
RTVSPropertyOp52
 70
     0
102
RTVSPropertyOp53
 70
     1
102
RTVSPropertyOp54
 70
     1
102
RTVSPropertyOp55
 70
     1
102
RTVSPropertyOp56
 70
     1
102
RTVSPropertyOp57
 70
     1
102
RTVSPost2010Prop28
280
     0
102
RTVSPost2010PropOp28
 70
     1
102
RTVSPost2010Prop29
280
     1
102
RTVSPost2010PropOp29
 70
     1
102
RTVSPost2010Prop30
280
     1
102
RTVSPost2010PropOp30
 70
     1
102
RTVSPost2010Prop31
280
     0
102
RTVSPost2010PropOp31
 70
     1
102
RTVSPost2010Prop32
280
     0
102
RTVSPost2010PropOp32
 70
     1
102
RTVSPost2010Prop33
280
     0
102
RTVSPost2010PropOp33
 70
     1
102
RTVSPost2010Prop34
280
     0
102
RTVSPost2010PropOp34
 70
     1
102
RTVSPost2010Prop35
280
     0
102
RTVSPost2010PropOp35
 70
     1
102
RTVSPost2010Prop36
280
     0
102
RTVSPost2010PropOp36
 70
     1
102
RTVSPost2010Prop37
 90
       50
102
RTVSPost2010PropOp37
 70
     1
102
RTVSPost2010Prop38
140
0.0
102
RTVSPost2010PropOp38
 70
     1
102
RTVSPost2010Prop39
140
1.0
102
RTVSPost2010PropOp39
 70
     1
102
RTVSPost2010Prop40
 90
        0
102
RTVSPost2010PropOp40
 70
     1
102
RTVSPost2010Prop41ColorIndex
 90
       18
102
RTVSPost2010Prop41ColorRGB
 90
        0
102
RTVSPost2010PropOp41
 70
     1
102
RTVSPost2010Prop42
 90
       50
102
RTVSPost2010PropOp42
 70
     1
102
RTVSPost2010Prop43
 90
        3
102
RTVSPost2010PropOp43
 70
     1
102
RTVSPost2010Prop44ColorIndex
 90
        5
102
RTVSPost2010Prop44ColorRGB
 90
      255
102
RTVSPost2010PropOp44
 70
     1
102
RTVSPost2010Prop45
280
     0
102
RTVSPost2010PropOp45
 70
     1
102
RTVSPost2010Prop46
 90
       50
102
RTVSPost2010PropOp46
 70
     1
102
RTVSPost2010Prop47
 90
       50
102
RTVSPost2010PropOp47
 70
     1
102
RTVSPost2010Prop48
 90
       50
102
RTVSPost2010PropOp48
 70
     1
102
RTVSPost2010Prop49
280
     0
102
RTVSPost2010PropOp49
 70
     1
102
RTVSPost2010Prop50
 90
       50
102
RTVSPost2010PropOp50
 70
     1
102
RTVSPost2010Prop51ColorIndex
 90
      256
102
RTVSPost2010Prop51ColorRGB
 90
-16777216
102
RTVSPost2010PropOp51
 70
     0
102
RTVSPost2010Prop52
140
1.0
102
RTVSPost2010PropOp52
 70
     0
102
RTVSPost2010Prop53
 90
        2
102
RTVSPost2010PropOp53
 70
     1
102
RTVSPost2010Prop54
  1
strokes_ogs.tif
102
RTVSPost2010PropOp54
 70
     1
102
RTVSPost2010Prop55
280
     0
102
RTVSPost2010PropOp55
 70
     1
102
RTVSPost2010Prop56
140
1.0
102
RTVSPost2010PropOp56
 70
     1
102
RTVSPost2010Prop57
140
1.0
102
RTVSPost2010PropOp57
 70
     1
  0
XRECORD
  5
445
102
{ACAD_REACTORS
330
444
102
}
330
444
100
AcDbXrecord
280
     1
102
RTVSPropertyOp0
 70
     1
102
RTVSPropertyOp1
 70
     1
102
RTVSPropertyOp2
 70
     1
102
RTVSPropertyOp3
 70
     1
102
RTVSPropertyOp4
 70
     1
102
RTVSPropertyOp5
 70
     1
102
RTVSPropertyOp6
 70
     1
102
RTVSPropertyOp7
 70
     1
102
RTVSPropertyOp8
 70
     1
102
RTVSPropertyOp9
 70
     1
102
RTVSPropertyOp10
 70
     1
102
RTVSPropertyOp11
 70
     1
102
RTVSPropertyOp12
 70
     1
102
RTVSPropertyOp13
 70
     1
102
RTVSPropertyOp14
 70
     1
102
RTVSPropertyOp15
 70
     1
102
RTVSPropertyOp16
 70
     1
102
RTVSPropertyOp17
 70
     1
102
RTVSPropertyOp18
 70
     1
102
RTVSPropertyOp19
 70
     1
102
RTVSPropertyOp20
 70
     1
102
RTVSPropertyOp21
 70
     1
102
RTVSPropertyOp22
 70
     1
102
RTVSPropertyOp23
 70
     1
102
RTVSPropertyOp24
 70
     1
102
RTVSPropertyOp25
 70
     1
102
RTVSPropertyOp26
 70
     1
102
RTVSPropertyOp27
 70
     1
102
RTVSPropertyOp28
 70
     1
102
RTVSPropertyOp29
 70
     1
102
RTVSPropertyOp30
 70
     1
102
RTVSPropertyOp31
 70
     1
102
RTVSPropertyOp32
 70
     1
102
RTVSPropertyOp33
 70
     1
102
RTVSPropertyOp34
 70
     1
102
RTVSPropertyOp35
 70
     1
102
RTVSPropertyOp36
 70
     1
102
RTVSPropertyOp37
 70
     1
102
RTVSPropertyOp38
 70
     1
102
RTVSPropertyOp39
 70
     1
102
RTVSPropertyOp40
 70
     1
102
RTVSPropertyOp41
 70
     1
102
RTVSPropertyOp42
 70
     1
102
RTVSPropertyOp43
 70
     1
102
RTVSPropertyOp44
 70
     1
102
RTVSPropertyOp45
 70
     1
102
RTVSPropertyOp46
 70
     1
102
RTVSPropertyOp47
 70
     1
102
RTVSPropertyOp48
 70
     1
102
RTVSPropertyOp49
 70
     1
102
RTVSPropertyOp50
 70
     1
102
RTVSPropertyOp51
 70
     0
102
RTVSPropertyOp52
 70
     0
102
RTVSPropertyOp53
 70
     1
102
RTVSPropertyOp54
 70
     1
102
RTVSPropertyOp55
 70
     1
102
RTVSPropertyOp56
 70
     1
102
RTVSPropertyOp57
 70
     1
102
RTVSPost2010Prop28
280
     0
102
RTVSPost2010PropOp28
 70
     1
102
RTVSPost2010Prop29
280
     1
102
RTVSPost2010PropOp29
 70
     1
102
RTVSPost2010Prop30
280
     1
102
RTVSPost2010PropOp30
 70
     1
102
RTVSPost2010Prop31
280
     0
102
RTVSPost2010PropOp31
 70
     1
102
RTVSPost2010Prop32
280
     0
102
RTVSPost2010PropOp32
 70
     1
102
RTVSPost2010Prop33
280
     0
102
RTVSPost2010PropOp33
 70
     1
102
RTVSPost2010Prop34
280
     0
102
RTVSPost2010PropOp34
 70
     1
102
RTVSPost2010Prop35
280
     0
102
RTVSPost2010PropOp35
 70
     1
102
RTVSPost2010Prop36
280
     0
102
RTVSPost2010PropOp36
 70
     1
102
RTVSPost2010Prop37
 90
       50
102
RTVSPost2010PropOp37
 70
     1
102
RTVSPost2010Prop38
140
0.0
102
RTVSPost2010PropOp38
 70
     1
102
RTVSPost2010Prop39
140
1.0
102
RTVSPost2010PropOp39
 70
     1
102
RTVSPost2010Prop40
 90
        0
102
RTVSPost2010PropOp40
 70
     1
102
RTVSPost2010Prop41ColorIndex
 90
       18
102
RTVSPost2010Prop41ColorRGB
 90
        0
102
RTVSPost2010PropOp41
 70
     1
102
RTVSPost2010Prop42
 90
       50
102
RTVSPost2010PropOp42
 70
     1
102
RTVSPost2010Prop43
 90
        3
102
RTVSPost2010PropOp43
 70
     1
102
RTVSPost2010Prop44ColorIndex
 90
        5
102
RTVSPost2010Prop44ColorRGB
 90
      255
102
RTVSPost2010PropOp44
 70
     1
102
RTVSPost2010Prop45
280
     0
102
RTVSPost2010PropOp45
 70
     1
102
RTVSPost2010Prop46
 90
       50
102
RTVSPost2010PropOp46
 70
     1
102
RTVSPost2010Prop47
 90
       50
102
RTVSPost2010PropOp47
 70
     1
102
RTVSPost2010Prop48
 90
       50
102
RTVSPost2010PropOp48
 70
     1
102
RTVSPost2010Prop49
280
     0
102
RTVSPost2010PropOp49
 70
     1
102
RTVSPost2010Prop50
 90
       50
102
RTVSPost2010PropOp50
 70
     1
102
RTVSPost2010Prop51ColorIndex
 90
      256
102
RTVSPost2010Prop51ColorRGB
 90
-16777216
102
RTVSPost2010PropOp51
 70
     0
102
RTVSPost2010Prop52
140
1.0
102
RTVSPost2010PropOp52
 70
     0
102
RTVSPost2010Prop53
 90
        2
102
RTVSPost2010PropOp53
 70
     1
102
RTVSPost2010Prop54
  1
strokes_ogs.tif
102
RTVSPost2010PropOp54
 70
     1
102
RTVSPost2010Prop55
280
     0
102
RTVSPost2010PropOp55
 70
     1
102
RTVSPost2010Prop56
140
1.0
102
RTVSPost2010PropOp56
 70
     1
102
RTVSPost2010Prop57
140
1.0
102
RTVSPost2010PropOp57
 70
     1
  0
XRECORD
  5
443
102
{ACAD_REACTORS
330
442
102
}
330
442
100
AcDbXrecord
280
     1
102
RTVSPropertyOp0
 70
     1
102
RTVSPropertyOp1
 70
     1
102
RTVSPropertyOp2
 70
     1
102
RTVSPropertyOp3
 70
     1
102
RTVSPropertyOp4
 70
     1
102
RTVSPropertyOp5
 70
     1
102
RTVSPropertyOp6
 70
     1
102
RTVSPropertyOp7
 70
     1
102
RTVSPropertyOp8
 70
     1
102
RTVSPropertyOp9
 70
     1
102
RTVSPropertyOp10
 70
     1
102
RTVSPropertyOp11
 70
     1
102
RTVSPropertyOp12
 70
     1
102
RTVSPropertyOp13
 70
     1
102
RTVSPropertyOp14
 70
     1
102
RTVSPropertyOp15
 70
     1
102
RTVSPropertyOp16
 70
     1
102
RTVSPropertyOp17
 70
     1
102
RTVSPropertyOp18
 70
     1
102
RTVSPropertyOp19
 70
     1
102
RTVSPropertyOp20
 70
     1
102
RTVSPropertyOp21
 70
     1
102
RTVSPropertyOp22
 70
     1
102
RTVSPropertyOp23
 70
     1
102
RTVSPropertyOp24
 70
     1
102
RTVSPropertyOp25
 70
     1
102
RTVSPropertyOp26
 70
     1
102
RTVSPropertyOp27
 70
     1
102
RTVSPropertyOp28
 70
     1
102
RTVSPropertyOp29
 70
     1
102
RTVSPropertyOp30
 70
     1
102
RTVSPropertyOp31
 70
     1
102
RTVSPropertyOp32
 70
     1
102
RTVSPropertyOp33
 70
     1
102
RTVSPropertyOp34
 70
     1
102
RTVSPropertyOp35
 70
     1
102
RTVSPropertyOp36
 70
     1
102
RTVSPropertyOp37
 70
     1
102
RTVSPropertyOp38
 70
     1
102
RTVSPropertyOp39
 70
     1
102
RTVSPropertyOp40
 70
     1
102
RTVSPropertyOp41
 70
     1
102
RTVSPropertyOp42
 70
     1
102
RTVSPropertyOp43
 70
     1
102
RTVSPropertyOp44
 70
     1
102
RTVSPropertyOp45
 70
     1
102
RTVSPropertyOp46
 70
     1
102
RTVSPropertyOp47
 70
     1
102
RTVSPropertyOp48
 70
     1
102
RTVSPropertyOp49
 70
     1
102
RTVSPropertyOp50
 70
     1
102
RTVSPropertyOp51
 70
     0
102
RTVSPropertyOp52
 70
     0
102
RTVSPropertyOp53
 70
     1
102
RTVSPropertyOp54
 70
     1
102
RTVSPropertyOp55
 70
     1
102
RTVSPropertyOp56
 70
     1
102
RTVSPropertyOp57
 70
     1
102
RTVSPost2010Prop28
280
     0
102
RTVSPost2010PropOp28
 70
     1
102
RTVSPost2010Prop29
280
     1
102
RTVSPost2010PropOp29
 70
     1
102
RTVSPost2010Prop30
280
     1
102
RTVSPost2010PropOp30
 70
     1
102
RTVSPost2010Prop31
280
     0
102
RTVSPost2010PropOp31
 70
     1
102
RTVSPost2010Prop32
280
     0
102
RTVSPost2010PropOp32
 70
     1
102
RTVSPost2010Prop33
280
     0
102
RTVSPost2010PropOp33
 70
     1
102
RTVSPost2010Prop34
280
     0
102
RTVSPost2010PropOp34
 70
     1
102
RTVSPost2010Prop35
280
     0
102
RTVSPost2010PropOp35
 70
     1
102
RTVSPost2010Prop36
280
     0
102
RTVSPost2010PropOp36
 70
     1
102
RTVSPost2010Prop37
 90
       50
102
RTVSPost2010PropOp37
 70
     1
102
RTVSPost2010Prop38
140
0.0
102
RTVSPost2010PropOp38
 70
     1
102
RTVSPost2010Prop39
140
1.0
102
RTVSPost2010PropOp39
 70
     1
102
RTVSPost2010Prop40
 90
        0
102
RTVSPost2010PropOp40
 70
     1
102
RTVSPost2010Prop41ColorIndex
 90
       18
102
RTVSPost2010Prop41ColorRGB
 90
        0
102
RTVSPost2010PropOp41
 70
     1
102
RTVSPost2010Prop42
 90
       50
102
RTVSPost2010PropOp42
 70
     1
102
RTVSPost2010Prop43
 90
        3
102
RTVSPost2010PropOp43
 70
     1
102
RTVSPost2010Prop44ColorIndex
 90
        5
102
RTVSPost2010Prop44ColorRGB
 90
      255
102
RTVSPost2010PropOp44
 70
     1
102
RTVSPost2010Prop45
280
     0
102
RTVSPost2010PropOp45
 70
     1
102
RTVSPost2010Prop46
 90
       50
102
RTVSPost2010PropOp46
 70
     1
102
RTVSPost2010Prop47
 90
       50
102
RTVSPost2010PropOp47
 70
     1
102
RTVSPost2010Prop48
 90
       50
102
RTVSPost2010PropOp48
 70
     1
102
RTVSPost2010Prop49
280
     0
102
RTVSPost2010PropOp49
 70
     1
102
RTVSPost2010Prop50
 90
       50
102
RTVSPost2010PropOp50
 70
     1
102
RTVSPost2010Prop51ColorIndex
 90
      256
102
RTVSPost2010Prop51ColorRGB
 90
-16777216
102
RTVSPost2010PropOp51
 70
     0
102
RTVSPost2010Prop52
140
1.0
102
RTVSPost2010PropOp52
 70
     0
102
RTVSPost2010Prop53
 90
        2
102
RTVSPost2010PropOp53
 70
     1
102
RTVSPost2010Prop54
  1
strokes_ogs.tif
102
RTVSPost2010PropOp54
 70
     1
102
RTVSPost2010Prop55
280
     0
102
RTVSPost2010PropOp55
 70
     1
102
RTVSPost2010Prop56
140
1.0
102
RTVSPost2010PropOp56
 70
     1
102
RTVSPost2010Prop57
140
1.0
102
RTVSPost2010PropOp57
 70
     1
  0
XRECORD
  5
43D
102
{ACAD_REACTORS
330
43C
102
}
330
43C
100
AcDbXrecord
280
     1
102
RTVSPropertyOp0
 70
     1
102
RTVSPropertyOp1
 70
     1
102
RTVSPropertyOp2
 70
     1
102
RTVSPropertyOp3
 70
     1
102
RTVSPropertyOp4
 70
     1
102
RTVSPropertyOp5
 70
     1
102
RTVSPropertyOp6
 70
     1
102
RTVSPropertyOp7
 70
     1
102
RTVSPropertyOp8
 70
     1
102
RTVSPropertyOp9
 70
     1
102
RTVSPropertyOp10
 70
     1
102
RTVSPropertyOp11
 70
     1
102
RTVSPropertyOp12
 70
     1
102
RTVSPropertyOp13
 70
     1
102
RTVSPropertyOp14
 70
     1
102
RTVSPropertyOp15
 70
     1
102
RTVSPropertyOp16
 70
     1
102
RTVSPropertyOp17
 70
     1
102
RTVSPropertyOp18
 70
     1
102
RTVSPropertyOp19
 70
     1
102
RTVSPropertyOp20
 70
     1
102
RTVSPropertyOp21
 70
     1
102
RTVSPropertyOp22
 70
     1
102
RTVSPropertyOp23
 70
     1
102
RTVSPropertyOp24
 70
     1
102
RTVSPropertyOp25
 70
     1
102
RTVSPropertyOp26
 70
     1
102
RTVSPropertyOp27
 70
     1
102
RTVSPropertyOp28
 70
     1
102
RTVSPropertyOp29
 70
     1
102
RTVSPropertyOp30
 70
     1
102
RTVSPropertyOp31
 70
     1
102
RTVSPropertyOp32
 70
     1
102
RTVSPropertyOp33
 70
     1
102
RTVSPropertyOp34
 70
     1
102
RTVSPropertyOp35
 70
     1
102
RTVSPropertyOp36
 70
     1
102
RTVSPropertyOp37
 70
     1
102
RTVSPropertyOp38
 70
     1
102
RTVSPropertyOp39
 70
     1
102
RTVSPropertyOp40
 70
     1
102
RTVSPropertyOp41
 70
     1
102
RTVSPropertyOp42
 70
     1
102
RTVSPropertyOp43
 70
     1
102
RTVSPropertyOp44
 70
     1
102
RTVSPropertyOp45
 70
     1
102
RTVSPropertyOp46
 70
     1
102
RTVSPropertyOp47
 70
     1
102
RTVSPropertyOp48
 70
     1
102
RTVSPropertyOp49
 70
     1
102
RTVSPropertyOp50
 70
     1
102
RTVSPropertyOp51
 70
     0
102
RTVSPropertyOp52
 70
     0
102
RTVSPropertyOp53
 70
     1
102
RTVSPropertyOp54
 70
     1
102
RTVSPropertyOp55
 70
     1
102
RTVSPropertyOp56
 70
     1
102
RTVSPropertyOp57
 70
     1
102
RTVSPost2010Prop28
280
     0
102
RTVSPost2010PropOp28
 70
     1
102
RTVSPost2010Prop29
280
     1
102
RTVSPost2010PropOp29
 70
     1
102
RTVSPost2010Prop30
280
     1
102
RTVSPost2010PropOp30
 70
     1
102
RTVSPost2010Prop31
280
     0
102
RTVSPost2010PropOp31
 70
     1
102
RTVSPost2010Prop32
280
     0
102
RTVSPost2010PropOp32
 70
     1
102
RTVSPost2010Prop33
280
     0
102
RTVSPost2010PropOp33
 70
     1
102
RTVSPost2010Prop34
280
     0
102
RTVSPost2010PropOp34
 70
     1
102
RTVSPost2010Prop35
280
     0
102
RTVSPost2010PropOp35
 70
     1
102
RTVSPost2010Prop36
280
     0
102
RTVSPost2010PropOp36
 70
     1
102
RTVSPost2010Prop37
 90
       50
102
RTVSPost2010PropOp37
 70
     1
102
RTVSPost2010Prop38
140
0.0
102
RTVSPost2010PropOp38
 70
     1
102
RTVSPost2010Prop39
140
1.0
102
RTVSPost2010PropOp39
 70
     1
102
RTVSPost2010Prop40
 90
        0
102
RTVSPost2010PropOp40
 70
     1
102
RTVSPost2010Prop41ColorIndex
 90
       18
102
RTVSPost2010Prop41ColorRGB
 90
        0
102
RTVSPost2010PropOp41
 70
     1
102
RTVSPost2010Prop42
 90
       50
102
RTVSPost2010PropOp42
 70
     1
102
RTVSPost2010Prop43
 90
        3
102
RTVSPost2010PropOp43
 70
     1
102
RTVSPost2010Prop44ColorIndex
 90
        5
102
RTVSPost2010Prop44ColorRGB
 90
      255
102
RTVSPost2010PropOp44
 70
     1
102
RTVSPost2010Prop45
280
     0
102
RTVSPost2010PropOp45
 70
     1
102
RTVSPost2010Prop46
 90
       50
102
RTVSPost2010PropOp46
 70
     1
102
RTVSPost2010Prop47
 90
       50
102
RTVSPost2010PropOp47
 70
     1
102
RTVSPost2010Prop48
 90
       50
102
RTVSPost2010PropOp48
 70
     1
102
RTVSPost2010Prop49
280
     0
102
RTVSPost2010PropOp49
 70
     1
102
RTVSPost2010Prop50
 90
       50
102
RTVSPost2010PropOp50
 70
     1
102
RTVSPost2010Prop51ColorIndex
 90
      256
102
RTVSPost2010Prop51ColorRGB
 90
-16777216
102
RTVSPost2010PropOp51
 70
     0
102
RTVSPost2010Prop52
140
1.0
102
RTVSPost2010PropOp52
 70
     0
102
RTVSPost2010Prop53
 90
        2
102
RTVSPost2010PropOp53
 70
     1
102
RTVSPost2010Prop54
  1
strokes_ogs.tif
102
RTVSPost2010PropOp54
 70
     1
102
RTVSPost2010Prop55
280
     0
102
RTVSPost2010PropOp55
 70
     1
102
RTVSPost2010Prop56
140
1.0
102
RTVSPost2010PropOp56
 70
     1
102
RTVSPost2010Prop57
140
1.0
102
RTVSPost2010PropOp57
 70
     1
  0
XRECORD
  5
43F
102
{ACAD_REACTORS
330
43E
102
}
330
43E
100
AcDbXrecord
280
     1
102
RTVSPropertyOp0
 70
     1
102
RTVSPropertyOp1
 70
     1
102
RTVSPropertyOp2
 70
     1
102
RTVSPropertyOp3
 70
     1
102
RTVSPropertyOp4
 70
     1
102
RTVSPropertyOp5
 70
     1
102
RTVSPropertyOp6
 70
     1
102
RTVSPropertyOp7
 70
     1
102
RTVSPropertyOp8
 70
     1
102
RTVSPropertyOp9
 70
     1
102
RTVSPropertyOp10
 70
     1
102
RTVSPropertyOp11
 70
     1
102
RTVSPropertyOp12
 70
     1
102
RTVSPropertyOp13
 70
     1
102
RTVSPropertyOp14
 70
     1
102
RTVSPropertyOp15
 70
     1
102
RTVSPropertyOp16
 70
     1
102
RTVSPropertyOp17
 70
     1
102
RTVSPropertyOp18
 70
     1
102
RTVSPropertyOp19
 70
     1
102
RTVSPropertyOp20
 70
     1
102
RTVSPropertyOp21
 70
     1
102
RTVSPropertyOp22
 70
     1
102
RTVSPropertyOp23
 70
     1
102
RTVSPropertyOp24
 70
     1
102
RTVSPropertyOp25
 70
     1
102
RTVSPropertyOp26
 70
     1
102
RTVSPropertyOp27
 70
     1
102
RTVSPropertyOp28
 70
     1
102
RTVSPropertyOp29
 70
     1
102
RTVSPropertyOp30
 70
     1
102
RTVSPropertyOp31
 70
     1
102
RTVSPropertyOp32
 70
     1
102
RTVSPropertyOp33
 70
     1
102
RTVSPropertyOp34
 70
     1
102
RTVSPropertyOp35
 70
     1
102
RTVSPropertyOp36
 70
     1
102
RTVSPropertyOp37
 70
     1
102
RTVSPropertyOp38
 70
     1
102
RTVSPropertyOp39
 70
     1
102
RTVSPropertyOp40
 70
     1
102
RTVSPropertyOp41
 70
     1
102
RTVSPropertyOp42
 70
     1
102
RTVSPropertyOp43
 70
     1
102
RTVSPropertyOp44
 70
     1
102
RTVSPropertyOp45
 70
     1
102
RTVSPropertyOp46
 70
     1
102
RTVSPropertyOp47
 70
     1
102
RTVSPropertyOp48
 70
     1
102
RTVSPropertyOp49
 70
     1
102
RTVSPropertyOp50
 70
     1
102
RTVSPropertyOp51
 70
     0
102
RTVSPropertyOp52
 70
     0
102
RTVSPropertyOp53
 70
     1
102
RTVSPropertyOp54
 70
     1
102
RTVSPropertyOp55
 70
     1
102
RTVSPropertyOp56
 70
     1
102
RTVSPropertyOp57
 70
     1
102
RTVSPost2010Prop28
280
     0
102
RTVSPost2010PropOp28
 70
     1
102
RTVSPost2010Prop29
280
     1
102
RTVSPost2010PropOp29
 70
     1
102
RTVSPost2010Prop30
280
     1
102
RTVSPost2010PropOp30
 70
     1
102
RTVSPost2010Prop31
280
     0
102
RTVSPost2010PropOp31
 70
     1
102
RTVSPost2010Prop32
280
     0
102
RTVSPost2010PropOp32
 70
     1
102
RTVSPost2010Prop33
280
     0
102
RTVSPost2010PropOp33
 70
     1
102
RTVSPost2010Prop34
280
     0
102
RTVSPost2010PropOp34
 70
     1
102
RTVSPost2010Prop35
280
     0
102
RTVSPost2010PropOp35
 70
     1
102
RTVSPost2010Prop36
280
     0
102
RTVSPost2010PropOp36
 70
     1
102
RTVSPost2010Prop37
 90
       50
102
RTVSPost2010PropOp37
 70
     1
102
RTVSPost2010Prop38
140
0.0
102
RTVSPost2010PropOp38
 70
     1
102
RTVSPost2010Prop39
140
1.0
102
RTVSPost2010PropOp39
 70
     1
102
RTVSPost2010Prop40
 90
        0
102
RTVSPost2010PropOp40
 70
     1
102
RTVSPost2010Prop41ColorIndex
 90
       18
102
RTVSPost2010Prop41ColorRGB
 90
        0
102
RTVSPost2010PropOp41
 70
     1
102
RTVSPost2010Prop42
 90
       50
102
RTVSPost2010PropOp42
 70
     1
102
RTVSPost2010Prop43
 90
        3
102
RTVSPost2010PropOp43
 70
     1
102
RTVSPost2010Prop44ColorIndex
 90
        5
102
RTVSPost2010Prop44ColorRGB
 90
      255
102
RTVSPost2010PropOp44
 70
     1
102
RTVSPost2010Prop45
280
     0
102
RTVSPost2010PropOp45
 70
     1
102
RTVSPost2010Prop46
 90
       50
102
RTVSPost2010PropOp46
 70
     1
102
RTVSPost2010Prop47
 90
       50
102
RTVSPost2010PropOp47
 70
     1
102
RTVSPost2010Prop48
 90
       50
102
RTVSPost2010PropOp48
 70
     1
102
RTVSPost2010Prop49
280
     0
102
RTVSPost2010PropOp49
 70
     1
102
RTVSPost2010Prop50
 90
       50
102
RTVSPost2010PropOp50
 70
     1
102
RTVSPost2010Prop51ColorIndex
 90
      256
102
RTVSPost2010Prop51ColorRGB
 90
-16777216
102
RTVSPost2010PropOp51
 70
     0
102
RTVSPost2010Prop52
140
1.0
102
RTVSPost2010PropOp52
 70
     0
102
RTVSPost2010Prop53
 90
        2
102
RTVSPost2010PropOp53
 70
     1
102
RTVSPost2010Prop54
  1
strokes_ogs.tif
102
RTVSPost2010PropOp54
 70
     1
102
RTVSPost2010Prop55
280
     0
102
RTVSPost2010PropOp55
 70
     1
102
RTVSPost2010Prop56
140
1.0
102
RTVSPost2010PropOp56
 70
     1
102
RTVSPost2010Prop57
140
1.0
102
RTVSPost2010PropOp57
 70
     1
  0
XRECORD
  5
42F
102
{ACAD_REACTORS
330
42E
102
}
330
42E
100
AcDbXrecord
280
     1
102
RTVSPropertyOp0
 70
     1
102
RTVSPropertyOp1
 70
     1
102
RTVSPropertyOp2
 70
     1
102
RTVSPropertyOp3
 70
     1
102
RTVSPropertyOp4
 70
     1
102
RTVSPropertyOp5
 70
     1
102
RTVSPropertyOp6
 70
     1
102
RTVSPropertyOp7
 70
     1
102
RTVSPropertyOp8
 70
     1
102
RTVSPropertyOp9
 70
     1
102
RTVSPropertyOp10
 70
     1
102
RTVSPropertyOp11
 70
     1
102
RTVSPropertyOp12
 70
     1
102
RTVSPropertyOp13
 70
     1
102
RTVSPropertyOp14
 70
     1
102
RTVSPropertyOp15
 70
     1
102
RTVSPropertyOp16
 70
     1
102
RTVSPropertyOp17
 70
     1
102
RTVSPropertyOp18
 70
     1
102
RTVSPropertyOp19
 70
     1
102
RTVSPropertyOp20
 70
     1
102
RTVSPropertyOp21
 70
     1
102
RTVSPropertyOp22
 70
     1
102
RTVSPropertyOp23
 70
     1
102
RTVSPropertyOp24
 70
     1
102
RTVSPropertyOp25
 70
     1
102
RTVSPropertyOp26
 70
     1
102
RTVSPropertyOp27
 70
     1
102
RTVSPropertyOp28
 70
     1
102
RTVSPropertyOp29
 70
     1
102
RTVSPropertyOp30
 70
     1
102
RTVSPropertyOp31
 70
     1
102
RTVSPropertyOp32
 70
     1
102
RTVSPropertyOp33
 70
     1
102
RTVSPropertyOp34
 70
     1
102
RTVSPropertyOp35
 70
     1
102
RTVSPropertyOp36
 70
     1
102
RTVSPropertyOp37
 70
     1
102
RTVSPropertyOp38
 70
     1
102
RTVSPropertyOp39
 70
     1
102
RTVSPropertyOp40
 70
     1
102
RTVSPropertyOp41
 70
     1
102
RTVSPropertyOp42
 70
     1
102
RTVSPropertyOp43
 70
     1
102
RTVSPropertyOp44
 70
     1
102
RTVSPropertyOp45
 70
     1
102
RTVSPropertyOp46
 70
     1
102
RTVSPropertyOp47
 70
     1
102
RTVSPropertyOp48
 70
     1
102
RTVSPropertyOp49
 70
     1
102
RTVSPropertyOp50
 70
     1
102
RTVSPropertyOp51
 70
     0
102
RTVSPropertyOp52
 70
     0
102
RTVSPropertyOp53
 70
     1
102
RTVSPropertyOp54
 70
     1
102
RTVSPropertyOp55
 70
     1
102
RTVSPropertyOp56
 70
     1
102
RTVSPropertyOp57
 70
     1
102
RTVSPost2010Prop28
280
     0
102
RTVSPost2010PropOp28
 70
     1
102
RTVSPost2010Prop29
280
     1
102
RTVSPost2010PropOp29
 70
     1
102
RTVSPost2010Prop30
280
     1
102
RTVSPost2010PropOp30
 70
     1
102
RTVSPost2010Prop31
280
     0
102
RTVSPost2010PropOp31
 70
     1
102
RTVSPost2010Prop32
280
     0
102
RTVSPost2010PropOp32
 70
     1
102
RTVSPost2010Prop33
280
     0
102
RTVSPost2010PropOp33
 70
     1
102
RTVSPost2010Prop34
280
     0
102
RTVSPost2010PropOp34
 70
     1
102
RTVSPost2010Prop35
280
     0
102
RTVSPost2010PropOp35
 70
     1
102
RTVSPost2010Prop36
280
     0
102
RTVSPost2010PropOp36
 70
     1
102
RTVSPost2010Prop37
 90
       50
102
RTVSPost2010PropOp37
 70
     1
102
RTVSPost2010Prop38
140
0.0
102
RTVSPost2010PropOp38
 70
     1
102
RTVSPost2010Prop39
140
1.0
102
RTVSPost2010PropOp39
 70
     1
102
RTVSPost2010Prop40
 90
        0
102
RTVSPost2010PropOp40
 70
     1
102
RTVSPost2010Prop41ColorIndex
 90
       18
102
RTVSPost2010Prop41ColorRGB
 90
        0
102
RTVSPost2010PropOp41
 70
     1
102
RTVSPost2010Prop42
 90
       50
102
RTVSPost2010PropOp42
 70
     1
102
RTVSPost2010Prop43
 90
        3
102
RTVSPost2010PropOp43
 70
     1
102
RTVSPost2010Prop44ColorIndex
 90
        5
102
RTVSPost2010Prop44ColorRGB
 90
      255
102
RTVSPost2010PropOp44
 70
     1
102
RTVSPost2010Prop45
280
     0
102
RTVSPost2010PropOp45
 70
     1
102
RTVSPost2010Prop46
 90
       50
102
RTVSPost2010PropOp46
 70
     1
102
RTVSPost2010Prop47
 90
       50
102
RTVSPost2010PropOp47
 70
     1
102
RTVSPost2010Prop48
 90
       50
102
RTVSPost2010PropOp48
 70
     1
102
RTVSPost2010Prop49
280
     0
102
RTVSPost2010PropOp49
 70
     1
102
RTVSPost2010Prop50
 90
       50
102
RTVSPost2010PropOp50
 70
     1
102
RTVSPost2010Prop51ColorIndex
 90
      256
102
RTVSPost2010Prop51ColorRGB
 90
-16777216
102
RTVSPost2010PropOp51
 70
     0
102
RTVSPost2010Prop52
140
1.0
102
RTVSPost2010PropOp52
 70
     0
102
RTVSPost2010Prop53
 90
        2
102
RTVSPost2010PropOp53
 70
     1
102
RTVSPost2010Prop54
  1
strokes_ogs.tif
102
RTVSPost2010PropOp54
 70
     1
102
RTVSPost2010Prop55
280
     0
102
RTVSPost2010PropOp55
 70
     1
102
RTVSPost2010Prop56
140
1.0
102
RTVSPost2010PropOp56
 70
     1
102
RTVSPost2010Prop57
140
1.0
102
RTVSPost2010PropOp57
 70
     1
  0
XRECORD
  5
421
102
{ACAD_REACTORS
330
420
102
}
330
420
100
AcDbXrecord
280
     1
102
RTVSPropertyOp0
 70
     1
102
RTVSPropertyOp1
 70
     1
102
RTVSPropertyOp2
 70
     1
102
RTVSPropertyOp3
 70
     1
102
RTVSPropertyOp4
 70
     1
102
RTVSPropertyOp5
 70
     1
102
RTVSPropertyOp6
 70
     1
102
RTVSPropertyOp7
 70
     1
102
RTVSPropertyOp8
 70
     1
102
RTVSPropertyOp9
 70
     1
102
RTVSPropertyOp10
 70
     1
102
RTVSPropertyOp11
 70
     1
102
RTVSPropertyOp12
 70
     1
102
RTVSPropertyOp13
 70
     1
102
RTVSPropertyOp14
 70
     1
102
RTVSPropertyOp15
 70
     1
102
RTVSPropertyOp16
 70
     1
102
RTVSPropertyOp17
 70
     1
102
RTVSPropertyOp18
 70
     1
102
RTVSPropertyOp19
 70
     1
102
RTVSPropertyOp20
 70
     1
102
RTVSPropertyOp21
 70
     1
102
RTVSPropertyOp22
 70
     1
102
RTVSPropertyOp23
 70
     1
102
RTVSPropertyOp24
 70
     1
102
RTVSPropertyOp25
 70
     1
102
RTVSPropertyOp26
 70
     1
102
RTVSPropertyOp27
 70
     1
102
RTVSPropertyOp28
 70
     1
102
RTVSPropertyOp29
 70
     1
102
RTVSPropertyOp30
 70
     1
102
RTVSPropertyOp31
 70
     1
102
RTVSPropertyOp32
 70
     1
102
RTVSPropertyOp33
 70
     1
102
RTVSPropertyOp34
 70
     1
102
RTVSPropertyOp35
 70
     1
102
RTVSPropertyOp36
 70
     1
102
RTVSPropertyOp37
 70
     1
102
RTVSPropertyOp38
 70
     1
102
RTVSPropertyOp39
 70
     1
102
RTVSPropertyOp40
 70
     1
102
RTVSPropertyOp41
 70
     1
102
RTVSPropertyOp42
 70
     1
102
RTVSPropertyOp43
 70
     1
102
RTVSPropertyOp44
 70
     1
102
RTVSPropertyOp45
 70
     1
102
RTVSPropertyOp46
 70
     1
102
RTVSPropertyOp47
 70
     1
102
RTVSPropertyOp48
 70
     1
102
RTVSPropertyOp49
 70
     1
102
RTVSPropertyOp50
 70
     1
102
RTVSPropertyOp51
 70
     0
102
RTVSPropertyOp52
 70
     0
102
RTVSPropertyOp53
 70
     1
102
RTVSPropertyOp54
 70
     1
102
RTVSPropertyOp55
 70
     1
102
RTVSPropertyOp56
 70
     1
102
RTVSPropertyOp57
 70
     1
102
RTVSPost2010Prop28
280
     0
102
RTVSPost2010PropOp28
 70
     1
102
RTVSPost2010Prop29
280
     1
102
RTVSPost2010PropOp29
 70
     1
102
RTVSPost2010Prop30
280
     1
102
RTVSPost2010PropOp30
 70
     1
102
RTVSPost2010Prop31
280
     0
102
RTVSPost2010PropOp31
 70
     1
102
RTVSPost2010Prop32
280
     0
102
RTVSPost2010PropOp32
 70
     1
102
RTVSPost2010Prop33
280
     0
102
RTVSPost2010PropOp33
 70
     1
102
RTVSPost2010Prop34
280
     0
102
RTVSPost2010PropOp34
 70
     1
102
RTVSPost2010Prop35
280
     0
102
RTVSPost2010PropOp35
 70
     1
102
RTVSPost2010Prop36
280
     0
102
RTVSPost2010PropOp36
 70
     1
102
RTVSPost2010Prop37
 90
       50
102
RTVSPost2010PropOp37
 70
     1
102
RTVSPost2010Prop38
140
0.0
102
RTVSPost2010PropOp38
 70
     1
102
RTVSPost2010Prop39
140
1.0
102
RTVSPost2010PropOp39
 70
     1
102
RTVSPost2010Prop40
 90
        0
102
RTVSPost2010PropOp40
 70
     1
102
RTVSPost2010Prop41ColorIndex
 90
       18
102
RTVSPost2010Prop41ColorRGB
 90
        0
102
RTVSPost2010PropOp41
 70
     1
102
RTVSPost2010Prop42
 90
       50
102
RTVSPost2010PropOp42
 70
     1
102
RTVSPost2010Prop43
 90
        3
102
RTVSPost2010PropOp43
 70
     1
102
RTVSPost2010Prop44ColorIndex
 90
        5
102
RTVSPost2010Prop44ColorRGB
 90
      255
102
RTVSPost2010PropOp44
 70
     1
102
RTVSPost2010Prop45
280
     0
102
RTVSPost2010PropOp45
 70
     1
102
RTVSPost2010Prop46
 90
       50
102
RTVSPost2010PropOp46
 70
     1
102
RTVSPost2010Prop47
 90
       50
102
RTVSPost2010PropOp47
 70
     1
102
RTVSPost2010Prop48
 90
       50
102
RTVSPost2010PropOp48
 70
     1
102
RTVSPost2010Prop49
280
     0
102
RTVSPost2010PropOp49
 70
     1
102
RTVSPost2010Prop50
 90
       50
102
RTVSPost2010PropOp50
 70
     1
102
RTVSPost2010Prop51ColorIndex
 90
      256
102
RTVSPost2010Prop51ColorRGB
 90
-16777216
102
RTVSPost2010PropOp51
 70
     0
102
RTVSPost2010Prop52
140
1.0
102
RTVSPost2010PropOp52
 70
     0
102
RTVSPost2010Prop53
 90
        2
102
RTVSPost2010PropOp53
 70
     1
102
RTVSPost2010Prop54
  1
strokes_ogs.tif
102
RTVSPost2010PropOp54
 70
     1
102
RTVSPost2010Prop55
280
     0
102
RTVSPost2010PropOp55
 70
     1
102
RTVSPost2010Prop56
140
1.0
102
RTVSPost2010PropOp56
 70
     1
102
RTVSPost2010Prop57
140
1.0
102
RTVSPost2010PropOp57
 70
     1
  0
XRECORD
  5
441
102
{ACAD_REACTORS
330
440
102
}
330
440
100
AcDbXrecord
280
     1
102
RTVSPropertyOp0
 70
     1
102
RTVSPropertyOp1
 70
     1
102
RTVSPropertyOp2
 70
     1
102
RTVSPropertyOp3
 70
     1
102
RTVSPropertyOp4
 70
     1
102
RTVSPropertyOp5
 70
     1
102
RTVSPropertyOp6
 70
     1
102
RTVSPropertyOp7
 70
     1
102
RTVSPropertyOp8
 70
     1
102
RTVSPropertyOp9
 70
     1
102
RTVSPropertyOp10
 70
     1
102
RTVSPropertyOp11
 70
     1
102
RTVSPropertyOp12
 70
     1
102
RTVSPropertyOp13
 70
     1
102
RTVSPropertyOp14
 70
     1
102
RTVSPropertyOp15
 70
     1
102
RTVSPropertyOp16
 70
     1
102
RTVSPropertyOp17
 70
     1
102
RTVSPropertyOp18
 70
     1
102
RTVSPropertyOp19
 70
     1
102
RTVSPropertyOp20
 70
     1
102
RTVSPropertyOp21
 70
     1
102
RTVSPropertyOp22
 70
     1
102
RTVSPropertyOp23
 70
     1
102
RTVSPropertyOp24
 70
     1
102
RTVSPropertyOp25
 70
     1
102
RTVSPropertyOp26
 70
     1
102
RTVSPropertyOp27
 70
     1
102
RTVSPropertyOp28
 70
     1
102
RTVSPropertyOp29
 70
     1
102
RTVSPropertyOp30
 70
     1
102
RTVSPropertyOp31
 70
     1
102
RTVSPropertyOp32
 70
     1
102
RTVSPropertyOp33
 70
     1
102
RTVSPropertyOp34
 70
     1
102
RTVSPropertyOp35
 70
     1
102
RTVSPropertyOp36
 70
     1
102
RTVSPropertyOp37
 70
     1
102
RTVSPropertyOp38
 70
     1
102
RTVSPropertyOp39
 70
     1
102
RTVSPropertyOp40
 70
     1
102
RTVSPropertyOp41
 70
     1
102
RTVSPropertyOp42
 70
     1
102
RTVSPropertyOp43
 70
     1
102
RTVSPropertyOp44
 70
     1
102
RTVSPropertyOp45
 70
     1
102
RTVSPropertyOp46
 70
     1
102
RTVSPropertyOp47
 70
     1
102
RTVSPropertyOp48
 70
     1
102
RTVSPropertyOp49
 70
     1
102
RTVSPropertyOp50
 70
     1
102
RTVSPropertyOp51
 70
     0
102
RTVSPropertyOp52
 70
     0
102
RTVSPropertyOp53
 70
     1
102
RTVSPropertyOp54
 70
     1
102
RTVSPropertyOp55
 70
     1
102
RTVSPropertyOp56
 70
     1
102
RTVSPropertyOp57
 70
     1
102
RTVSPost2010Prop28
280
     0
102
RTVSPost2010PropOp28
 70
     1
102
RTVSPost2010Prop29
280
     1
102
RTVSPost2010PropOp29
 70
     1
102
RTVSPost2010Prop30
280
     1
102
RTVSPost2010PropOp30
 70
     1
102
RTVSPost2010Prop31
280
     0
102
RTVSPost2010PropOp31
 70
     1
102
RTVSPost2010Prop32
280
     0
102
RTVSPost2010PropOp32
 70
     1
102
RTVSPost2010Prop33
280
     0
102
RTVSPost2010PropOp33
 70
     1
102
RTVSPost2010Prop34
280
     0
102
RTVSPost2010PropOp34
 70
     1
102
RTVSPost2010Prop35
280
     0
102
RTVSPost2010PropOp35
 70
     1
102
RTVSPost2010Prop36
280
     0
102
RTVSPost2010PropOp36
 70
     1
102
RTVSPost2010Prop37
 90
       50
102
RTVSPost2010PropOp37
 70
     1
102
RTVSPost2010Prop38
140
0.0
102
RTVSPost2010PropOp38
 70
     1
102
RTVSPost2010Prop39
140
1.0
102
RTVSPost2010PropOp39
 70
     1
102
RTVSPost2010Prop40
 90
        0
102
RTVSPost2010PropOp40
 70
     1
102
RTVSPost2010Prop41ColorIndex
 90
       18
102
RTVSPost2010Prop41ColorRGB
 90
        0
102
RTVSPost2010PropOp41
 70
     1
102
RTVSPost2010Prop42
 90
       50
102
RTVSPost2010PropOp42
 70
     1
102
RTVSPost2010Prop43
 90
        3
102
RTVSPost2010PropOp43
 70
     1
102
RTVSPost2010Prop44ColorIndex
 90
        5
102
RTVSPost2010Prop44ColorRGB
 90
      255
102
RTVSPost2010PropOp44
 70
     1
102
RTVSPost2010Prop45
280
     0
102
RTVSPost2010PropOp45
 70
     1
102
RTVSPost2010Prop46
 90
       50
102
RTVSPost2010PropOp46
 70
     1
102
RTVSPost2010Prop47
 90
       50
102
RTVSPost2010PropOp47
 70
     1
102
RTVSPost2010Prop48
 90
       50
102
RTVSPost2010PropOp48
 70
     1
102
RTVSPost2010Prop49
280
     0
102
RTVSPost2010PropOp49
 70
     1
102
RTVSPost2010Prop50
 90
       50
102
RTVSPost2010PropOp50
 70
     1
102
RTVSPost2010Prop51ColorIndex
 90
      256
102
RTVSPost2010Prop51ColorRGB
 90
-16777216
102
RTVSPost2010PropOp51
 70
     0
102
RTVSPost2010Prop52
140
1.0
102
RTVSPost2010PropOp52
 70
     0
102
RTVSPost2010Prop53
 90
        2
102
RTVSPost2010PropOp53
 70
     1
102
RTVSPost2010Prop54
  1
strokes_ogs.tif
102
RTVSPost2010PropOp54
 70
     1
102
RTVSPost2010Prop55
280
     0
102
RTVSPost2010PropOp55
 70
     1
102
RTVSPost2010Prop56
140
1.0
102
RTVSPost2010PropOp56
 70
     1
102
RTVSPost2010Prop57
140
1.0
102
RTVSPost2010PropOp57
 70
     1
  0
ENDSEC
  0
EOF
